вход на сайт

Имя пользователя :
Пароль :

Восстановление пароля Регистрация
Шкатулка проклятия / The Possession (Уле Борнедаль, Ужасы, триллер, 2012) [BDRip 1080p, Дубляж, Оригинал (английский), Commentary, Sub]
Рейтинг:
(голосов: 1)



[img]{THEME}/images/logopost.png[/img]



Шкатулка проклятия / The Possession
«Бойся демона, что не боится Бога»


Год выпуска: 2012
Страна: США, Канада
Производство: Ghost House Pictures, North Box Productions
Жанр: Ужасы, триллер

Режиссёр: Уле Борнедаль
В ролях: Джеффри Дин Морган, Наташа Калис, Кира Седжвик, Мэдисон Девенпорт, Роб ЛаБелль, Матисьяху, Джей Бразо, Грант Шоу, Нана Гбивонио, Анна Хэган

Перевод: Дубляж, Оригинал (английский), Commentary
Субтитры: Russian, English [Full, SDH], Spanish

Описание: Девочка покупает винтажную шкатулку на ярмарке в одном из соседних дворов. Поначалу родители не видят повода для беспокойства, когда их младшая дочь становится одержима новой игрушкой. Со временем поведение девочки становится все более странным, а реакции неожиданными, родители пытаются раскрыть секрет шкатулки. Они не подозревают, что в деревянной коробке живет злой дух, который творит страшные вещи со своими хозяевами — их было много и владели они этим «сокровищем» очень недолго. Отец девочки объединяется с бывшей женой в попытках найти способ снять проклятие с их ребенка.





Качество: BDRip 1080p |
Продолжительность:01:32:13час.


Формат: MKV
Видео кодек: x264
Аудио кодек: AC3, DTS
Видео:1920x796 (2.40:1), 23.976 fps, x264 ~12.0 mb/s 0.328 bit/pixel
Аудио#1: 48 kHz/24-bit, DTS, 3/2 (L,C,R,l,r) + LFE ch, ~755.00 kbps avg - (Дубляж)
Аудио#2: DTS, 48 kHz/16-bit, 3/2 (L,C,R,l,r) + LFE ch, ~1510 kbps avg - (Оригинал)
Аудио#3: 48 kHz, AC3, 2/0 (L,R) ch, ~128.00 kbps avg - (Commentary)

Дата премьеры (мир): 30 августа 201
Дата премьеры (РФ): 30 августа 2012, «West»

MediaInfo ▼
Unique ID : 219479233553162864101674088315238739266 (0xA51E29ADBA36485D91D70EFC017FED42)
Complete name : Shkatulka.prokljatija.2012.D.BDRip.1080p.IRONCLUB.mkv
Format : Matroska
Format version : Version 2
File size : 9.25 GiB
Duration : 1h 32mn
Overall bit rate : 14.4 Mbps
Movie name : IRONCLUB
Encoded date : UTC 2013-01-16 21:41:33
Writing application : mkvmerge v5.2.0 (I cant explain) built on Dec 18 2011 18:12:03
Writing library : libebml v1.2.3 + libmatroska v1.3.0

Video
ID : 1
Format : AVC
Format/Info : Advanced Video Codec
Format profile : [email protected]
Format settings, CABAC : Yes
Format settings, ReFrames : 5 frames
Codec ID : V_MPEG4/ISO/AVC
Duration : 1h 32mn
Bit rate : 12.0 Mbps
Width : 1 920 pixels
Height : 796 pixels
Display aspect ratio : 2.40:1
Frame rate : 23.976 fps
Color space : YUV
Chroma subsampling : 4:2:0
Bit depth : 8 bits
Scan type : Progressive
Bits/(Pixel*Frame) : 0.328
Stream size : 7.53 GiB (81%)
Title : [email protected]
Writing library : x264 core 128 r2216+698 b3c1019
Encoding settings : cabac=1 / ref=5 / deblock=1:-3:-3 / analyse=0x3:0x113 / me=umh / subme=10 / psy=1 / fade_compensate=0.00 / psy_rd=1.10:0.10 / mixed_ref=1 / me_range=48 / chroma_me=1 / trellis=2 / 8x8dct=1 / cqm=0 / deadzone=21,11 / fast_pskip=0 / chroma_qp_offset=-2 / threads=12 / lookahead_threads=2 / sliced_threads=0 / nr=0 / decimate=1 / interlaced=0 / bluray_compat=0 / constrained_intra=0 / fgo=0 / bframes=6 / b_pyramid=2 / b_adapt=2 / b_bias=0 / direct=3 / weightb=1 / open_gop=0 / weightp=2 / keyint=250 / keyint_min=23 / scenecut=40 / intra_refresh=0 / rc_lookahead=40 / rc=2pass / mbtree=0 / bitrate=12010 / ratetol=2.0 / qcomp=0.70 / qpmin=0 / qpmax=69 / qpstep=4 / cplxblur=20.0 / qblur=0.5 / vbv_maxrate=40000 / vbv_bufsize=30000 / nal_hrd=none / ip_ratio=1.40 / pb_ratio=1.30 / aq=2:1.00
Language : English
Default : Yes
Forced : No

Audio #1
ID : 2
Format : DTS
Format/Info : Digital Theater Systems
Codec ID : A_DTS
Duration : 1h 32mn
Bit rate mode : Constant
Bit rate : 755 Kbps
Channel(s) : 6 channels
Channel positions : Front: L C R, Side: L R, LFE
Sampling rate : 48.0 KHz
Bit depth : 24 bits
Compression mode : Lossy
Stream size : 498 MiB (5%)
Title : DTS 5.1 @ 755 kbps - Dub, R5
Language : Russian
Default : Yes
Forced : Yes

Audio #2
ID : 3
Format : DTS
Format/Info : Digi
964f99cbe29a2f0b8a6c2d196a0c20b6bb30f84aШкатулка проклятия / The Possession (Уле Борнедаль, Ужасы, триллер, 2012) [BDRip 1080p, Дубляж, Оригинал (английский), Commentary, Sub] Шкатулка проклятия / The Possession (Уле Борнедаль, Ужасы, триллер, 2012) [BDRip 1080p, Дубляж, Оригинал (английский), Commentary, Sub] " />

Аплоадер: Админ, дата: 17-01-2013, 04:18, торрент скачан: 359 раз

Понравилась раздача? Посмотрите эти:
  • Паркер / Parker (Тейлор Хэкфорд, Боевик, триллер, криминал, 2013) [BDRip 7 ...
  • Шкатулка проклятия / The Possession (Уле Борнедаль, Ужасы, триллер, 2012) [ ...
  • Шкатулка проклятия / The Possession (Уле Борнедаль, ужасы, триллер, 2012) [ ...
  • Шкатулка проклятия / The Possession (Уле Борнедаль, Ужасы, триллер, 2012) [ ...
  • Шкатулка проклятия / The Possession (Уле Борнедаль, ужасы, триллер, 2012) [ ...
  • Шкатулка проклятия / The Possession (Уле Борнедаль, ужасы, триллер, 2012) [ ...
  • Шкатулка проклятия / The Possession (Уле Борнедаль, Ужасы, триллер, 2012) [ ...
  • Шкатулка проклятия / The Possession (Уле Борнедаль, ужасы, триллер, 2012) [ ...
  • Шкатулка проклятия / The Possession (Уле Борнедаль, ужасы, триллер, 2012) [ ...
  • Шкатулка проклятия / The Possession (Уле Борнедаль, Ужасы, триллер, 2012) [ ...
  • Хижина в лесу / The Cabin in the Woods (Дрю Годдард, Ужасы, фантастика, три ...
  • Красные огни / Red Lights (Родриго Кортес, Ужасы, триллер, драма, 2012) [BD ...
  • Третий лишний / Ted (Сет МакФарлейн, Фэнтези, комедия, 2012) [BDRip 720p, Д ...
  • Третий лишний / Ted (Сет МакФарлейн, Фэнтези, комедия, 2012) [BDRip 1080p, ...
  • Явление / The Apparition (Тодд Линкольн, Ужасы, триллер, 2012) [BDRip 720p, ...
  • Эволюция Борна / The Bourne Legacy (Тони Гилрой, Боевик, триллер, детектив, ...
  • Эволюция Борна / The Bourne Legacy (Тони Гилрой, Боевик, триллер, детектив, ...
  • Петля времени / Looper (Райан Джонсон, Фантастика, боевик, триллер, 2012) [ ...
  • Шкатулка проклятия / The Possession (Уле Борнедаль, ужасы, триллер, 2012) [ ...
  • Шкатулка проклятия / The Possession (Уле Борнедаль, ужасы, триллер, 2012) [ ...
  • Шкатулка проклятия / The Possession (Уле Борнедаль, ужасы, триллер, 2012) [ ...
  • Шкатулка проклятия / The Possession (Уле Борнедаль, Ужасы, триллер, 2012) [ ...
  • Шкатулка проклятия / The Possession (Уле Борнедаль, Ужасы, триллер, 2012) [ ...
  • [iPhone, iPod] Шкатулка проклятия / The Possession (Уле Борнедаль, Ужасы, Т ...
  • [Трейлер] Шкатулка проклятия / The Possession (Уле Борнедаль, ужасы, трилле ...
  • Информация
    Посетители, находящиеся в группе Гости, не могут оставлять комментарии к данной публикации.