вход на сайт

Имя пользователя :
Пароль :

Восстановление пароля Регистрация
Призрак в школе / Haunted High (Джеффри Скотт Ландо, ужасы, фантастика, 2012) [BDRemux 1080p, Профессиональный (многоголосый закадровый), оригинал (норвежский)]
Рейтинг:
(голосов: 1)



[img]{THEME}/images/logopost.png[/img]



Призрак в школе / Haunted High

Год выпуска: 2012
Страна: США
Производство: Active Entertainment
Жанр: ужасы, фантастика

Режиссёр: Джеффри Скотт Ландо
В ролях: ХМ. К. Гейни, Лорен Пеннингтон, Шон С. Филлипс, Джонатан Барон, Гейб Бигнёд, Харизма Карпентер, Марк Донато, Стефани Фишер, Грифф Ферст, Дэнни Трехо

Перевод: Профессиональный (многоголосый закадровый), оригинал (норвежский)
Субтитры: нет

Описание: Группа учеников оказывается запертой в школе городка Хеллвилла после необычного землетрясения. Лишенные возможности вернуться домой, ребята продолжают готовиться к дискотеке на встрече выпускников. Но по коридорам блуждают недавно пробудившиеся призраки, и ситуация накаляется, когда обнаруживается, что в директора их школы вселился некий дух...





Качество: BDRemux 1080p
Продолжительность: 01:27:28

Формат: MKV
Главы: есть
Видео кодек: MPEG-4 AVC Video
Аудио кодек: Dolby Digital Audio, DTS-HD Master Audio
Видео: 1920x1080p (16:9) 19994 kbps, 23,976 fps, 0.403 bit/pix, High Profile 4.1
Аудио #1: Русский / Dolby Digital Audio / 192 kbps / 2.0 / 48 kHz / 16-bit
Аудио #2: Norwegian / DTS-HD Master Audio / 2057 kbps / 5.1 / 48 kHz / 16-bit (DTS Core: 5.1 / 48 kHz / 1 510 Kbps / 16-bit / DN -4dB)

MediaInfo ▼
General
Unique ID : 240486432012076252316810630158066775284 (0xB4EC008734E94732999CCD0DE8B9F4F4)
Complete name : Z:...Призрак в школе.2012.BDRemux 1080p.mkv
Format : Matroska
Format version : Version 4 / Version 2
File size : 13.6 GiB
Duration : 1h 27mn
Overall bit rate mode : Variable
Overall bit rate : 22.2 Mbps
Movie name : GORENOISE
Encoded date : UTC 2010-02-22 21:41:31
Writing application : mkvmerge v5.9.0 (On The Loose) built on Dec 9 2012 15:37:01
Writing library : libebml v1.3.0 + libmatroska v1.4.0
Video #1
ID : 1
Format : AVC
Format/Info : Advanced Video Codec
Format profile : [email protected]
Format settings, CABAC : Yes
Format settings, ReFrames : 4 frames
Codec ID : V_MPEG4/ISO/AVC
Duration : 1h 27mn
Bit rate mode : Variable
Bit rate : 20.1 Mbps
Maximum bit rate : 34.0 Mbps
Width : 1 920 pixels
Height : 1 080 pixels
Display aspect ratio : 16:9
Frame rate mode : Constant
Frame rate : 23.976 fps
Standard : NTSC
Color space : YUV
Chroma subsampling : 4:2:0
Bit depth : 8 bits
Scan type : Progressive
Bits/(Pixel*Frame) : 0.403
Stream size : 12.3 GiB (90%)
Title : GORENOISE
Language : English
Default : Yes
Forced : No
Color primaries : BT.709
Transfer characteristics : BT.709
Matrix coefficients : BT.709
Audio #2
ID : 2
Format : AC-3
Format/Info : Audio Coding 3
Mode extension : CM (complete main)
Format settings, Endianness : Big
Codec ID : A_AC3
Duration : 1h 27mn
Bit rate mode : Constant
Bit rate : 192 Kbps
Channel(s) : 2 channels
Channel positions : Front: L R
Sampling rate : 48.0 KHz
Bit depth : 16 bits
Compression mode : Lossy
Stream size : 120 MiB (1%)
Title : Профессиональный (многоголосый закадровый) SyFy
Language : Russian
Default : Yes
Forced : No
Audio #3
ID : 3
Format : DTS
Format/Info : Digital Theater Systems
Format profile : MA / Core
Codec ID : A_DTS
Duration : 1h 27mn
Bit rate mode : Variable
Bit rate : 1 561 Kbps / 1 510 Kbps
Channel(s) : 6 channels
Channel positions : Front: L C R, Side: L R, LFE
Sampling rate : 48.0 KHz
Bit depth : 16 bits
Compression mode : Lossless / Lossy
Title : Оригинал
Language : English
Default : No
Forced : No
Menu
00:00:00.000 : en:00:00:00.000
00:09:59.974 : en:00:09:59.974
00:19:59.990 : en:00:19:59.990
00:29:59.965 : en:00:29:59.965
00:39:59.981 : en:00:39:59.981
00:49:59.955 : en:00:49:59.955
00:59:59.971 : en:00:59:59.971
01:09:59.946 : en:01:09:59.946
01:19:59.920 : en:01:19:59.920



adfc21f07833e1d01564ddd003e8305870fefdefПризрак в школе / Haunted High (Джеффри Скотт Ландо, ужасы, фантастика, 2012) [BDRemux 1080p, Профессиональный (многоголосый закадровый), оригинал (норвежский)] Призрак в школе / Haunted High (Джеффри Скотт Ландо, ужасы, фантастика, 2012) [BDRemux 1080p, Профессиональный (многоголосый закадровый), оригинал (норвежский)] " />

Аплоадер: Админ, дата: 15-01-2013, 12:22, торрент скачан: 359 раз

Понравилась раздача? Посмотрите эти:
  • Inna / More Than Friends [2013, Pop, Master]
  • Пастырь / Priest (Скотт Чарльз Стюарт, ужасы, фантастика, боевик, триллер, ...
  • Богатенький Ричи / Ri¢hie Ri¢h / Richie Rich (Дональд Питри, комедия, семей ...
  • Kara / Speed Up [2012, K-Pop, J-Pop, Dance, BDRemux]
  • Нубы / Noobz (Блейк Фриман, Комедия, 2012) [BDRemux 1080p, Профессиональный ...
  • Дом с паранормальными явлениями / A Haunted House (Майкл Тиддес, Ужасы, ком ...
  • Родительский беспредел / Parental Guidance (Энди Фикмен, Комедия, семейный, ...
  • Самый страшный фильм 3D / Dead Before Dawn 3D (Эйприл Маллен, Ужасы, комеди ...
  • Невероятный страх перед всем / A Fantastic Fear of Everything (Крис Хопвелл ...
  • О чём говорят мужчины (Дмитрий Дьяченко, комедия, 2010) [BDRemux 1080p, не ...
  • Старая добрая оргия / A Good Old Fashioned Orgy (Алекс Грегори, комедия, 20 ...
  • Пол: Секретный материальчик / Расширенная версия / Paul (Грег Моттола, фант ...
  • Стыд / Shame (Стив МакКуин, драма, 2011) [BDRemux 1080p, Дублированный + Од ...
  • Притворись моей женой / Just go with it (Деннис Дуган, мелодрама, комедия, ...
  • Рапунцель: Счастлива навсегда / Tangled Ever After ( Нэйтан Грено, Байрон Х ...
  • Бульвар страха / Rosewood Lane (Виктор Сальва, Ужасы, триллер, 2011) [BD-Re ...
  • Шкатулка проклятия / The Possession (Уле Борнедаль, ужасы, триллер, 2012) [ ...
  • Призрак в школе / Haunted High (Джеффри Скотт Ландо, ужасы, фантастика, 201 ...
  • Призрак в школе / Haunted High (Джеффри Скотт Ландо, ужасы, фантастика, 201 ...
  • Супершторм в Сиэтле / Seattle Superstorm (Джейсон Бурк, фантастика, боевик ...
  • Информация
    Посетители, находящиеся в группе Гости, не могут оставлять комментарии к данной публикации.