вход на сайт

Имя пользователя :
Пароль :

Восстановление пароля Регистрация
Бродяга Кэнсин / Rurôni Kenshin: Meiji kenkaku roman tan (Кейдзи Отомо, Самурайский боевик, драма, 2012) [BDRip 1080p, любительский (двухголосый), оригинал, субтитры]
Рейтинг:
(голосов: 1)



[img]{THEME}/images/logopost.png[/img]



Бродяга Кэнсин / Rurôni Kenshin: Meiji kenkaku roman tan

Год выпуска: 2012
Страна: Япония
Производство: C&I Entertainment, IMJ Entertainment, RoC Works
Жанр: Самурайский боевик, драма

Режиссёр: Кейдзи Отомо
В ролях: Аои Ю, Теруюки Кагава, Йосуке Егучи, Такеру Сато, Еми Такей, Мунэтака Аоки, Кёдзи Киккава, Танака Такэто

Перевод: Любительский (двухголосый закадровый), оригинальный Японский
Озвучка: Ворон и Трина Дубовицкая
Субтитры: Русские "Альянс", английские

Описание: Бывший легендарный убийца Кэнсин Химура стал скитальцем самураем, предлагающим помощь и защиту нуждающимся, чтобы искупить свои прошлые поступки. Во время своих скитаний Кэнсин столкнется с Каору Камией. Ее отец открыл школу кэндо в Токио и Каору работает там инструктором. Отношения Кэнсина и Каору начинают развиваться, но Кэнсина по-прежнему преследует его ужасное прошлое…



Качество: BDRip 1080p
Продолжительность: 02:14:26

Формат: MKV
Видео кодек: AVC
Аудио кодек: AC-3
Видео: 1920x804 (16:9), 23.976 fps, 10.5 Mbps, 0.285 bit/pix
Аудио #1: Russian DVO | ac3, 5.1, 48.0 KHz, 448 Kbps
Аудио #2: Japan original | ac3, 5.1, 48.0 KHz, 640 Kbps

"MediaInfo" ▼TextH:KenshinRurouni.Kenshin.2012.BDRip.1080p.[Rus.Jap.2xSub].mkv
General
Unique ID : 218423685178711088126322424176489381839 (0xA452DF203047E8F5AD7EF2CC2BDDBFCF)
Complete name : H:KenshinRurouni.Kenshin.2012.BDRip.1080p.[Rus.Jap.2xSub].mkv
Format : Matroska
Format version : Version 2
File size : 10.9 GiB
Duration : 2h 14mn
Overall bit rate : 11.6 Mbps
Encoded date : UTC 2013-01-08 05:30:23
Writing application : mkvmerge v5.8.0 (No Sleep / Pillow) built on Sep 2 2012 15:37:04
Writing library : libebml v1.2.3 + libmatroska v1.3.0
Video #1
ID : 1
Format : AVC
Format/Info : Advanced Video Codec
Format profile : [email protected]
Format settings, CABAC : Yes
Format settings, ReFrames : 5 frames
Codec ID : V_MPEG4/ISO/AVC
Duration : 2h 14mn
Bit rate : 10.5 Mbps
Width : 1 920 pixels
Height : 804 pixels
Display aspect ratio : 2.40:1
Frame rate : 23.976 fps
Color space : YUV
Chroma subsampling : 4:2:0
Bit depth : 8 bits
Scan type : Progressive
Bits/(Pixel*Frame) : 0.285
Stream size : 9.67 GiB (89%)
Writing library : x264 core 125 r2208 d9d2288
Encoding settings : cabac=1 / ref=5 / deblock=1:-3:-3 / analyse=0x3:0x113 / me=tesa / subme=11 / psy=1 / psy_rd=1.05:0.10 / mixed_ref=1 / me_range=48 / chroma_me=1 / trellis=2 / 8x8dct=1 / cqm=2 / deadzone=21,11 / fast_pskip=0 / chroma_qp_offset=-2 / threads=12 / lookahead_threads=2 / sliced_threads=0 / nr=0 / decimate=1 / interlaced=0 / bluray_compat=0 / constrained_intra=0 / bframes=8 / b_pyramid=2 / b_adapt=2 / b_bias=0 / direct=3 / weightb=1 / open_gop=0 / weightp=2 / keyint=250 / keyint_min=23 / scenecut=40 / intra_refresh=0 / rc_lookahead=60 / rc=2pass / mbtree=0 / bitrate=10536 / ratetol=2.0 / qcomp=0.70 / qpmin=1 / qpmax=63 / qpstep=4 / cplxblur=20.0 / qblur=0.5 / vbv_maxrate=40000 / vbv_bufsize=30000 / nal_hrd=none / ip_ratio=1.40 / pb_ratio=1.30 / aq=2:0.90
Language : Japanese
Color primaries : BT.709-5, BT.1361, IEC 61966-2-4, SMPTE RP177
Transfer characteristics : BT.709-5, BT.1361
Matrix coefficients : BT.709-5, BT.1361, IEC 61966-2-4 709, SMPTE RP177
Audio #2
ID : 2
Format : AC-3
Format/Info : Audio Coding 3
Mode extension : CM (complete main)
Codec ID : A_AC3
Duration : 2h 14mn
Bit rate mode : Constant
Bit rate : 448 Kbps
Channel(s) : 6 channels
Channel positions : Front: L C R, Side: L R, LFE
Sampling rate : 48.0 KHz
Bit depth : 16 bits
Compression mode : Lossy
Stream size : 431 MiB (4%)
Title : DVO Ворон и Трина Дубовицкая
Language : Russian
Audio #3
ID : 3
Format : AC-3
Format/Info : Audio Coding 3
Mode extension : CM (complete main)
Codec ID : A_AC3
Duration : 2h 14mn
Bit rate mode : Constant
Bit rate : 640 Kbps
Channel(s) : 6 channels
Channel positions : Front: L C R, Side: L R, LFE
Sampling rate : 48.0 KHz
Bit depth : 16 bits
Compression mode : Lossy
Stream size : 615 MiB (6%)
Language : Japanese
Text #4
ID : 4
Form
7e6a19bbe14570a0a6c6da4d85fbc24615a91199Бродяга Кэнсин / Rurôni Kenshin: Meiji kenkaku roman tan (Кейдзи Отомо, Самурайский боевик, драма, 2012) [BDRip 1080p, любительский (двухголосый), оригинал, субтитры] Бродяга Кэнсин / Rurôni Kenshin: Meiji kenkaku roman tan (Кейдзи Отомо, Самурайский боевик, драма, 2012) [BDRip 1080p, любительский (двухголосый), оригинал, субтитры] " />

Аплоадер: Админ, дата: 14-01-2013, 16:51, торрент скачан: 359 раз

Понравилась раздача? Посмотрите эти:
  • Пастырь / Priest (Скотт Чарльз Стюарт, ужасы, фантастика, боевик, триллер, ...
  • Ледяной / The Iceman (Ариэль Вромен, драма, криминал, биография, 2013) [BDR ...
  • Хроника / Chronicle (Джошуа Транк, фантастика, боевик, триллер, драма, 2012 ...
  • Честь дракона / Tom yum goong (Прачья Пинкаю, боевик, триллер, драма, крим ...
  • Толстяк на ринге / Here Comes the Boom (Фрэнк Корачи, Боевик, комедия, 201 ...
  • Игра на выживание / Gone (Эйтор Далия, триллер, драма, 2012) [BDRip-AVC, Ду ...
  • Проект X: Дорвались / Project X (Нима Нуризаде, комедия, 2012) [BDRip-AVC, ...
  • Погоня / Abduction (Джон Синглтон, боевик, триллер, драма, детектив,2011) [ ...
  • Профессионал / Killer Elite (Гэри МакКендри, Боевик, Триллер, Криминал, 201 ...
  • Учитель на замену / Detachment (Тони Кэй, драма, 2011) [BDRip 720р, Професс ...
  • Ю-571 / U-571 (Джонатан Мостоу, Боевик, 2000) [BDRip - AVC, Дубляж + Субтит ...
  • Хроника [Режиссёрская версия] / Chronicle [Directors cut] (Джошуа Транк, фа ...
  • Ворон / The Raven (Джеймс МакТиг, Триллер, детектив, 2012) [BDRip 720p, Дуб ...
  • Красные огни / Red Lights (Родриго Кортес, Ужасы, триллер, драма, 2012) [BD ...
  • Белоснежка и охотник [Театральная версия] / Snow White and the Huntsman [Th ...
  • Супер Майк / Magic Mike (Стивен Содерберг, Драма, комедия, 2012) [BDRip 108 ...
  • На Дороге / On The Road (Уолтер Саллес, Драма, приключения, 2012) [BDRip 10 ...
  • Люди как мы / People Like Us (Алекс Куртцман, Драма, 2012) [BDRip 1080p, Пр ...
  • Футбольный клуб / Чемпионат Европы 2012 / НТВ+ [Футбол, 08.06.2012, HDTVRip ...
  • Чемпионат Европы 2012 / Группа C / 1-й тур / Ирландия — Хорватия / Спорт 1 ...
  • Mylene Farmer / Du Temps [2011, Pop, HDTVRip]
  • Бродяга Кэнсин / Rurouni Kenshin: Meiji kenkaku roman tan (Кейдзи Отомо, др ...
  • Собачье сердце (Владимир Бортко, фантастика, драма, комедия, 1988) [BDRip 1 ...
  • Сверхновый Супермен / All-Star Superman (Сэм Лью, мультфильм, фантастика, б ...
  • Церемония открытия летних Олимпийских игр 2012 в Лондоне. НТВ + [27.08.2012 ...
  • Информация
    Посетители, находящиеся в группе Гости, не могут оставлять комментарии к данной публикации.