вход на сайт

Имя пользователя :
Пароль :

Восстановление пароля Регистрация
Люди как мы / People Like Us (Алекс Куртцман, Драма, 2012) [BDRip 1080p, Профессиональный (многоголосый, закадровый) + Оригинал + Субтитры]
Рейтинг:
(голосов: 1)



[img]{THEME}/images/logopost.png[/img]



Люди как мы / People Like Us
«Find your family.»
Год выпуска: 2012
Страна: США
Производство: DreamWorks SKG, Kurtzman Orci Paper Products, Reliance Entertainment
Жанр: Драма
Режиссёр: Алекс Куртцман
В ролях:Крис Пайн, Элизабет Бэнкс, Мишель Пфайффер, Оливия Уайлд, Марк Дюпласс, Сара Морнелл, Филип Бейкер Холл, Дин Чеквала, Барбара Ив Харрис
Перевод: Профессиональный (многоголосый, закадровый) + Оригинал
Субтитры: Русские, английские
Дата премьеры (мир): 15 июня 2012
Релиз на DVD: 16 апреля 2013
Скачать: Сэмпл

Описание: Молодой менеджер по продажам, испытывающий сложности в своей карьере, теряет своего отца, с которым у него были натянутые отношения, на похороны которого он даже не явился, но явился на завещание. А получает в нём лишь просьбу передать 150 000 долларов некому Джошу Дэвису, который, как в дальнейшем становится понятно, является его племянником и сыном его неизвестный сестры…
Качество: BDRip 1080p
Продолжительность: 01:54:36
Формат: MKV
Видео кодек: H.264
Аудио кодек: AC3
Видео: 1920x816 (2,35:1), 23.976 fps, [email protected] ~10.7 Mbps, 0.286 bit/pixel
Аудио #1: 48 kHz, AC3 Dolby Digital, 3/2 (L,C,R,l,r) + LFE ch, ~640 kbps |Russian|
Аудио #2: 48 kHz, Digital Theater Systems, 3/2 (L,C,R,l,r) + LFE ch, ~1 510 kbps avg |English|

MediaInfo ▼TextGeneral
Unique ID : 207761385959495025466049773535850163966 (0x9C4D632FF7B9193C9E250FB57C386EFE)
Complete name : Люди как мы [2012, BDRip 1080p].mkv
Format : Matroska
Format version : Version 2
File size : 10.3 GiB
Duration : 1h 54mn
Overall bit rate : 12.8 Mbps
Movie name : IRONCLUB
Encoded date : UTC 2012-12-20 07:30:11
Writing application : mkvmerge v5.2.0 (I cant explain) built on Dec 18 2011 18:12:03
Writing library : libebml v1.2.3 + libmatroska v1.3.0

Video
ID : 1
Format : AVC
Format/Info : Advanced Video Codec
Format profile : [email protected]
Format settings, CABAC : Yes
Format settings, ReFrames : 5 frames
Codec ID : V_MPEG4/ISO/AVC
Duration : 1h 54mn
Bit rate : 10.7 Mbps
Width : 1 920 pixels
Height : 816 pixels
Display aspect ratio : 2.35:1
Frame rate : 23.976 fps
Color space : YUV
Chroma subsampling : 4:2:0
Bit depth : 8 bits
Scan type : Progressive
Bits/(Pixel*Frame) : 0.286
Stream size : 8.37 GiB (81%)
Title : People.Like.Us.2012.BluRay.1080.DTS.x264-CHD
Writing library : x264 core 125 r2208 d9d2288
Encoding settings : cabac=1 / ref=5 / deblock=1:-3:-3 / analyse=0x3:0x113 / me=umh / subme=10 / psy=1 / psy_rd=1.05:0.10 / mixed_ref=1 / me_range=48 / chroma_me=1 / trellis=2 / 8x8dct=1 / cqm=0 / deadzone=21,11 / fast_pskip=0 / chroma_qp_offset=-2 / threads=12 / lookahead_threads=2 / sliced_threads=0 / nr=0 / decimate=1 / interlaced=0 / bluray_compat=0 / constrained_intra=0 / bframes=6 / b_pyramid=2 / b_adapt=2 / b_bias=0 / direct=3 / weightb=1 / open_gop=0 / weightp=2 / keyint=250 / keyint_min=23 / scenecut=40 / intra_refresh=0 / rc_lookahead=40 / rc=2pass / mbtree=0 / bitrate=10733 / ratetol=2.0 / qcomp=0.70 / qpmin=0 / qpmax=69 / qpstep=4 / cplxblur=20.0 / qblur=0.5 / vbv_maxrate=40000 / vbv_bufsize=30000 / nal_hrd=none / ip_ratio=1.40 / pb_ratio=1.30 / aq=2:1.00
Language : English
Default : Yes
Forced : Yes

Audio #1
ID : 2
Format : AC-3
Format/Info : Audio Coding 3
Mode extension : CM (complete main)
Format settings, Endianness : Big
Codec ID : A_AC3
Duration : 1h 54mn
Bit rate mode : Constant
Bit rate : 640 Kbps
Channel(s) : 6 channels
Channel positions : Front: L C R, Side: L R, LFE
Sampling rate : 48.0 KHz
Bit depth : 16 bits
Compression mode : Lossy
Stream size : 525 MiB (5%)
Title : DD 5.1 @ 640 kbps - MVO, BD EUR
Language : Russian
Default : Yes
Forced : Yes

Audio #2
ID : 3
Format : DTS
Format/Info : Digital Theater Systems
Codec ID : A_DTS
Duration : 1h 54mn
Bit rate mode : Constant
Bit rate : 1 510 Kbps
Channel(s) : 6 channels
Channel positions : Front: L C R, Side: L R, LFE
Sampling rate : 48.0 KHz
Bit depth : 24 bits
Compression mode : Lossy
Stream size : 1.21 GiB (12%)
Title : DTS 5.1 @ 1536 kbps
La
85f6f20fd0b9459eb84067d6c05b9d099f8dfe20Люди как мы / People Like Us (Алекс Куртцман, Драма, 2012) [BDRip 1080p, Профессиональный (многоголосый, закадровый) + Оригинал + Субтитры] Люди как мы / People Like Us (Алекс Куртцман, Драма, 2012) [BDRip 1080p, Профессиональный (многоголосый, закадровый) + Оригинал + Субтитры] " />

Аплоадер: Админ, дата: 21-12-2012, 09:59, торрент скачан: 359 раз

Понравилась раздача? Посмотрите эти:
  • Люди как мы / People Like Us (Алекс Куртцман, Драма, 2012) [BDRip, Професси ...
  • Хроника / Chronicle (Джошуа Транк, фантастика, боевик, триллер, драма, 2012 ...
  • Люди как мы / People Like Us (Алекс Куртцман, Драма, 2012) [BDRip-AVC, Проф ...
  • Жизнь Пи / Life Of Pi (Энг Ли, Драма, приключения, 2012) [BDRip 1080p, Проф ...
  • Суррогат / The Sessions (Бен Луин, драма, 2012) [BDRip 720p, Профессиональн ...
  • Анна Каренина / Anna Karenina (Джо Райт, Драма, мелодрама, 2012) [BDRip 108 ...
  • Зубная фея 2 / Tooth Fairy 2 (Алекс Замм, комедия, семейный, 2012) [BDRip 7 ...
  • Люди как мы / People Like Us (Алекс Куртцман, Драма, 2012) [BDRip-AVC, Проф ...
  • Люди как мы / People Like Us (Алекс Куртцман, Драма, 2012) [BDRip-AVC, Авто ...
  • Люди как мы / People Like Us (Алекс Куртцман, Драма, 2012) [HDRip, Професси ...
  • Люди как мы / People Like Us (Алекс Куртцман, Драма, 2012) [BDRip-AVC, Проф ...
  • Двойник дьявола / The Devils Double (Ли Тамахори, драма, биография, 2011) [ ...
  • Чужие на районе / Attack the Block (Джо Корниш, фантастика, боевик, комедия ...
  • Рыжий пес / Red Dog (Крив Стендерс, драма, комедия, семейный, 2011) [BDRip ...
  • Любовь / Love (Уильям Юбэнк, Фантастика, драма, 2011) [BDRip 720p, Професси ...
  • Ворон / The Raven (Джеймс МакТиг, Триллер, детектив, 2012) [BDRip 720p, Дуб ...
  • Семь футов / Seven Below (Кевин Каррауэй, Ужасы, триллер, 2012) [BDRip 720p ...
  • Красные огни / Red Lights (Родриго Кортес, Ужасы, триллер, драма, 2012) [BD ...
  • Супер Майк / Magic Mike (Стивен Содерберг, Драма, комедия, 2012) [BDRip 108 ...
  • Доля ангелов / The Angels Share (Кен Лоуч, Драма, комедия, 2012) [BDRip 720 ...
  • На Дороге / On The Road (Уолтер Саллес, Драма, приключения, 2012) [BDRip 10 ...
  • Люди как мы / People Like Us (Алекс Куртцман, драма, 2012) [BDRip 720p, Про ...
  • Люди как мы / People Like Us (Алекс Куртцман, Драма, 2012) [HDRip, Професси ...
  • Люди как мы / People Like Us (Алекс Куртцман, Драма, 2012) [HDRip, Професси ...
  • Люди как мы / People Like Us (Алекс Куртцман, Драма, 2012) [HDRip, Авторски ...
  • Информация
    Посетители, находящиеся в группе Гости, не могут оставлять комментарии к данной публикации.