вход на сайт

Имя пользователя :
Пароль :

Восстановление пароля Регистрация
Долгий поцелуй на ночь / The Long Kiss Goodnight (Ренни Харлин, боевик, триллер, детектив, 1996) [BDRip 1080p, профессиональный, многоголосый, двухголосый, авторский одноголосый Андрея Гаврилова и Юрия Живова, украинский, оригинал, sub]
Рейтинг:
(голосов: 1)



[img]{THEME}/images/logopost.png[/img]



Долгий поцелуй на ночь / The Long Kiss Goodnight
Год выпуска: 1996
Страна: США
Производство: Forge, New Line Cinema
Жанр: Боевик, триллер, драма, криминал, детектив
Режиссёр: Ренни Харлин
В ролях: Джина Дэвис, Сэмюэл Л. Джексон, Патрик Малахайд, Крэйг Бирко, Брайан Кокс, Дэвид Морс, Дж. Д. Спрэдлин, Том Амандес, Ивонн Зима, Мелина Канакаредес, Алан Норт
Перевод: Профессиональный (многоголосый, двухголосый, одноголосый закадровый), авторский одноголосый Андрея Гаврилова и Юрия Живова, украинский, оригинал
Субтитры: Русские (3 варианта), английские
Описание: 8 лет назад школьная учительница Саманта Кейн перенесла полную потерю памяти. Она живет с 8-летней дочкой счастливой семейной жизнью и не подозревает о своем кровавом прошлом, ведь когда-то эта красивая женщина была агентом Чарли Бэдтимор, выполнявшим секретные заказы ЦРУ.
Шокированная неожиданным возвращением некоторых навыков и психологической подготовки профессионального киллера, Саманта пытается разобраться в своем прошлом. Детектив Митч Хенесси, начавший с расследования жизни простой учительницы, оказывается втянутым вместе с Самантой в секретную операцию ЦРУ.

Дата премьеры (мир) 11 октября 1996
Качество: BDRip 1080р
Продолжительность: 2:00:33

Формат: MKV
Видео кодек: H.264
Аудио кодек: AC-3, DTS
Видео: 1920x800 (2.40:1), 23.976 fps, 14746 kbps, Bits/Pixel 0.387
Аудио:
1 - DTS; Rus; 48000Hz; 6ch; 1510kbps [Киномания]
2 - DTS; Rus; 48000Hz; 6ch; 1510kbps [Гланц и Королева]
3 - Dolby AC3; Rus; 48000Hz; 6ch; 448kbps [Союз-Видео, R5]
4 - Dolby AC3; Rus; 48000Hz; 2ch; 192kbps [Союз-Видео, VHS]
5 - Dolby AC3; Ukr; 48000Hz; 2ch; 192kbps [перевод канала ICTV]
6 - DTS; Rus; 48000Hz; 6ch; 1510kbps [Андрей Гаврилов]
7 - DTS; Rus; 48000Hz; 6ch; 1510kbps [Юрий Живов]
8 - Dolby AC3; Rus; 48000Hz; 6ch; 384kbps [диктор CDV]
9 - DTS; Eng; 48000Hz; 6ch; 1510kbps [оригинал]
MediaInfo ▼
General
Format : Matroska
File size : 19.8 GiB
Duration : 2h 0mn
Overall bit rate : 23.5 Mbps
Encoded date : UTC 2011-01-30 09:19:21
Writing application : mkvmerge v4.0.0 (The Stars were mine) built on Jun 6 2010 16:18:42
Writing library : libebml v1.0.0 + libmatroska v1.0.0
Video
ID : 1
Format : AVC
Format/Info : Advanced Video Codec
Format profile : [email protected]
Format settings, CABAC : Yes
Format settings, ReFrames : 5 frames
Codec ID : V_MPEG4/ISO/AVC
Duration : 2h 0mn
Bit rate : 14.3 Mbps
Width : 1 920 pixels
Height : 800 pixels
Display aspect ratio : 2.40:1
Frame rate : 23.976 fps
Color space : YUV
Chroma subsampling : 4:2:0
Bit depth : 8 bits
Scan type : Progressive
Bits/(Pixel*Frame) : 0.387
Stream size : 12.0 GiB (61%)
Writing library : x264 core 112 r1867 22bfd31
Encoding settings : cabac=1 / ref=5 / deblock=1:-2:-2 / analyse=0x3:0x133 / me=umh / subme=10 / psy=1 / psy_rd=1.00:0.25 / mixed_ref=1 / me_range=24 / chroma_me=1 / trellis=2 / 8x8dct=1 / cqm=0 / deadzone=6,6 / fast_pskip=1 / chroma_qp_offset=-4 / threads=12 / sliced_threads=0 / nr=0 / decimate=0 / interlaced=0 / constrained_intra=0 / bframes=8 / b_pyramid=2 / b_adapt=2 / b_bias=0 / direct=3 / weightb=1 / open_gop=0 / weightp=2 / keyint=250 / keyint_min=23 / scenecut=40 / intra_refresh=0 / rc_lookahead=60 / rc=crf / mbtree=1 / crf=18.0 / qcomp=0.80 / qpmin=10 / qpmax=51 / qpstep=4 / ip_ratio=1.10 / aq=1:0.50
Language : English
Audio #1
ID : 2
Format : DTS
Format/Info : Digital Theater Systems
Codec ID : A_DTS
Duration : 2h 0mn
Bit rate mode : Constant
Bit rate : 1 510 Kbps
Channel(s) : 6 channels
Channel positions : Front: L C R, Side: L R, LFE
Sampling rate : 48.0 KHz
Bit depth : 24 bits
Stream size : 1.27 GiB (6%)
Title : Kinomania
Language : Russian
Audio #2
ID : 3
Format : DTS
Format/Info : Digital Theater Systems
Codec ID : A_DTS
Duration : 2h 0mn
Bit rate mode : Constant
Bit rate : 1 510 Kbps
Channel(s) : 6 channels
Channel positions : Front: L C R, Side: L R, LFE
Sampling rate : 48.0 KHz
Bit depth : 24 bits
Stream size : 1.27 GiB (6%)
5bfb0c4374fd8f533551801ee381f2aa5764b472Долгий поцелуй на ночь / The Long Kiss Goodnight (Ренни Харлин, боевик, триллер, детектив, 1996) [BDRip 1080p, профессиональный, многоголосый, двухголосый, авторский одноголосый Андрея Гаврилова и Юрия Живова, украинский, оригинал, sub] Долгий поцелуй на ночь / The Long Kiss Goodnight (Ренни Харлин, боевик, триллер, детектив, 1996) [BDRip 1080p, профессиональный, многоголосый, двухголосый, авторский одноголосый Андрея Гаврилова и Юрия Живова, украинский, оригинал, sub] " />

Аплоадер: Админ, дата: 27-11-2012, 20:57, торрент скачан: 359 раз

Понравилась раздача? Посмотрите эти:
  • Долгий поцелуй на ночь / The Long Kiss Goodnight (Ренни Харлин, Боевик, 199 ...
  • Ордер на смерть / Death warrant (Деран Сарафян, Боевик, драма, криминал, де ...
  • Мать / Madeo (Джун-хо Бон, триллер, драма, криминал, детектив, 2009) [BDRip ...
  • День независимости / Independence Day (Роланд Эммерих, фантастика, боевик, ...
  • Поворот не туда 4 / Wrong Turn 4 (Деклан О’Брайэн, ужасы, боевик, детектив, ...
  • Пришелец / Impostor (Гэри Фледер, фантастика, боевик, триллер, драма, 2001) ...
  • Повторяющие / Repeaters (Карл Бессай, фантастика, боевик, триллер, драма, к ...
  • Долгий поцелуй на ночь / The Long Kiss Goodnight (Ренни Харлин, Боевик, три ...
  • Роб Рой / Rob Roy (Майкл Кейтон-Джонс, боевик, драма, мелодрама, 1995) [BDR ...
  • [3D] Пираньи 3Д / Piranha 3D (Александр Ажа / Alexandre Aja, ужасы, боевик, ...
  • [3Д] Территория тьмы 3Д / Dark Country 3D (Томас Джейн,Триллер, детектив,20 ...
  • Долгий поцелуй на ночь / The Long Kiss Goodnight (Ренни Харлин, боевик, три ...
  • Специалист / The Specialist (Луис Льоса, боевик, триллер, 1994) [BDRip 1080 ...
  • Китайский квартал / Chinatown (Роман Полански, Триллер, драма, криминал, де ...
  • Эволюция Борна / The Bourne Legacy (Тони Гилрой, Боевик, триллер, детектив, ...
  • Викинги / Outlander (Ховард МакКейн, Фантастика, боевик, приключения, 2008) ...
  • Ариэтти из страны лилипутов / Kari-gurashi no Arietti // (2010) [BDRip 1080 ...
  • Долгий поцелуй на ночь / The Long Kiss Goodnight (Ренни Харлин, Боевик, 199 ...
  • Долгий поцелуй на ночь / The Long Kiss Goodnight ( Ренни Харлин, Боевик, Тр ...
  • Долгий поцелуй на ночь / The Long Kiss Goodnight ( Ренни Харлин, Боевик, тр ...
  • Информация
    Посетители, находящиеся в группе Гости, не могут оставлять комментарии к данной публикации.