вход на сайт

Имя пользователя :
Пароль :

Восстановление пароля Регистрация
Агент Хамилтон: В Интересах Нации / Hamilton - I Nationens Intresse (Кэтрин Уиндфельд, боевик, триллер, драма, 2012) [BDRip 720p, Профессиональный (многоголосый закадровый) + Оригинал + SUB]
Рейтинг:
(голосов: 1)



[img]{THEME}/images/logopost.png[/img]



Агент Хамилтон: В Интересах Нации / Hamilton - I Nationens Intresse


Год выпуска: 2012
Страна: Швеция
Производство: Pampas Produktion, TV4 Sweden
Жанр: боевик, триллер, драма

Режиссёр: Кэтрин Уиндфельд
В ролях: Микаэл Персбрандт, Пернилла Аугуст, Джейсон Флеминг, Леннарт Юльстрём, Александр Носик, Рэй Фиарон, Петер Андерссон, Густаф Хаммарстен, Дэн Экбор

Перевод: Профессиональный (многоголосый закадровый), Оригинал (швецкий)
Субтитры: English

Описание: Специальный агент Карл Гамильтон с секретной миссией на границе между Узбекистаном и Афганистаном. Он внедряется в тайную организацию русской мафии, которая украла сложные GPS-управляемые артиллерийские снаряды, экспортируемые шведской оборонной компанией Nordfors. Неожиданно они подвергаются нападению неизвестной группы вооруженных наемников, которые убивают всех, кроме Гамильтона, и скрываются вместе со снарядами.

Между тем, похищен шведский оружейный техник и заключен в тюрьму Сомали. Премьер-министр соглашается провести спасательную операцию при участии частной американской охранной компании Sectragon, с условием, что шведский наблюдатель будет присутствовать, а именно Карл Гамильтон. Гамильтон участвует в спасательной операции, но он чувствовал, что что-то не так. Кто-то говорит неправду, и он готов узнать, что происходит на самом деле.

Релиз от:




Качество: BDRip 720p | Сэмпл
Продолжительность: 01:49:08 час.


Формат: MKV
Видео кодек: x264
Аудио кодек: AC3
Видео: 1280x534 (2.40:1), 24.000 fps, x264 ~6 649 kbps avg, 0.405 bit/pixel
Аудио#1: 48 kHz, AC3, 3/2 (L,C,R,l,r) + LFE ch, ~448 kbps- (Профессиональный (многоголосый закадровый))
Аудио#2: 48 kHz, AC3, 3/2 (L,C,R,l,r) + LFE ch, ~640 kbps - (Оригинал)

Дата премьеры (мир): 13 января 2012

MediaInfo ▼General
Unique ID : 190769513127700104472514230778192928469 (0x8F84DF2D0825D3AC888D9F19B8231ED5)
Complete name : Agent.Xamilton.V.interesax.nacii.2012.P.BDRip.720p.IRONCLUB.mkv
Format : Matroska
Format version : Version 2
File size : 6.02 GiB
Duration : 1h 49mn
Overall bit rate : 7 894 Kbps
Movie name : IRONCLUB
Encoded date : UTC 2012-11-25 15:38:41
Writing application : mkvmerge v4.9.1 (Ich will) built on Jul 11 2011 23:53:15
Writing library : libebml v1.2.1 + libmatroska v1.1.1

Video
ID : 1
Format : AVC
Format/Info : Advanced Video Codec
Format profile : [email protected]
Format settings, CABAC : Yes
Format settings, ReFrames : 12 frames
Codec ID : V_MPEG4/ISO/AVC
Duration : 1h 49mn
Bit rate : 6 649 Kbps
Width : 1 280 pixels
Height : 534 pixels
Display aspect ratio : 2.40:1
Frame rate : 24.000 fps
Color space : YUV
Chroma subsampling : 4:2:0
Bit depth : 8 bits
Scan type : Progressive
Bits/(Pixel*Frame) : 0.405
Stream size : 5.07 GiB (84%)
Title : Hamilton.I.Nationens.Intresse.2012.720p.BluRay.x264-DON
Writing library : x264 core 125 r2200 999b753
Encoding settings : cabac=1 / ref=12 / deblock=1:-3:-3 / analyse=0x3:0x113 / me=tesa / subme=10 / psy=1 / psy_rd=1.01:0.05 / mixed_ref=1 / me_range=24 / chroma_me=1 / trellis=2 / 8x8dct=1 / cqm=0 / deadzone=21,11 / fast_pskip=0 / chroma_qp_offset=-3 / threads=12 / lookahead_threads=2 / sliced_threads=0 / nr=0 / decimate=0 / interlaced=0 / bluray_compat=0 / constrained_intra=0 / bframes=7 / b_pyramid=2 / b_adapt=1 / b_bias=0 / direct=1 / weightb=1 / open_gop=0 / weightp=2 / keyint=250 / keyint_min=24 / scenecut=40 / intra_refresh=0 / rc=crf / mbtree=0 / crf=17.4 / qcomp=0.60 / qpmin=0 / qpmax=69 / qpstep=4 / ip_ratio=1.40 / pb_ratio=1.30 / aq=1:0.85
Language : Swedish
Default : Yes
Forced : Yes

Audio #1
ID : 2
Format : AC-3
Format/Info : Audio Coding 3
Mode extension : CM (complete main)
Format settings, Endianness : Big
Codec ID : A_AC3
Duration : 1h 49mn
Bit rate mode : Constant
Bit rate : 448 Kbps
Channel(s) : 6 channels
Channel positions : Front: L C R, Side: L R, LFE
Sampling rate : 48.0 KHz
Bit depth : 16 bits
Compression mode : Lossy
Stream size : 350 MiB (6%)
Title : DD 5.1 @ 448
f75d0018b95ddecdfc29579b362f86d06719ababАгент Хамилтон: В Интересах Нации / Hamilton - I Nationens Intresse (Кэтрин Уиндфельд, боевик, триллер, драма, 2012) [BDRip 720p, Профессиональный (многоголосый закадровый) + Оригинал + SUB] Агент Хамилтон: В Интересах Нации / Hamilton - I Nationens Intresse (Кэтрин Уиндфельд, боевик, триллер, драма, 2012) [BDRip 720p, Профессиональный (многоголосый закадровый) + Оригинал + SUB] " />

Аплоадер: Админ, дата: 26-11-2012, 14:18, торрент скачан: 359 раз

Понравилась раздача? Посмотрите эти:
  • Погнали! / Getaway (Кортни Соломон, боевик, криминал, 2013) [BDRip 720p, Пр ...
  • Верное дельце / Une pure affaire (Александр Коффре, Боевик, Комедия, Кримин ...
  • Агент Хамилтон: Похищенная / Hamilton: Men inte om det galler din dotter (Т ...
  • Смерть на похоронах / Death at a Funeral (Нил ЛаБут, комедия, 2010) [BDRip ...
  • Цель Номер Один / Zero Dark Thirty (Кэтрин Бигелоу, Триллер, драма, история ...
  • Жизнь Пи / Life Of Pi (Энг Ли, Драма, приключения, 2012) [BDRip 720p, Профе ...
  • Суррогат / The Sessions (Бен Луин, драма, 2012) [BDRip 720p, Профессиональн ...
  • Толстяк на ринге / Here Comes the Boom (Фрэнк Корачи, Боевик, комедия, 201 ...
  • Джекпот / Arme Riddere (Магнус Мартенс, Боевик, комедия, криминал, 2011) [B ...
  • Черный дрозд / Deadfall (Штефан Руцовицки, Триллер, драма, криминал, 2012) ...
  • Конец света / Fin (Хорхе Торрегросса, триллер, 2012) [BDRip 720p, Профессио ...
  • Убить по расписанию / Ticking Clock (Эрни Барбараш, фантастика, боевик, три ...
  • Похищенная / A Lonely Place to Die (Джулиан Джилби, триллер, криминал, прик ...
  • Мачо и ботан / 21 Jump Street (Фил Лорд, Крис Миллер, боевик, комедия, 2012 ...
  • «Весёлые» каникулы / Get the Gringo (Адриан Грюнберг, Боевик, комедия, 2012 ...
  • Любовь / Love (Уильям Юбэнк, Фантастика, драма, 2011) [BDRip 720p, Професси ...
  • Ворон / The Raven (Джеймс МакТиг, Триллер, детектив, 2012) [BDRip 720p, Дуб ...
  • Пираньи 3DD / Piranha 3DD (Джон Гулажер, ужасы, триллер, комедия, 2012) [BD ...
  • Код доступа «София» / Sofia / Assassins Bullet (Айзек Флорентайн, Боевик, т ...
  • Семь футов / Seven Below (Кевин Каррауэй, Ужасы, триллер, 2012) [BDRip 720p ...
  • Красные огни / Red Lights (Родриго Кортес, Ужасы, триллер, драма, 2012) [BD ...
  • Судный день / The Day (Дуглас Арниокоски, Фантастика, триллер, драма, 2011) ...
  • Доля ангелов / The Angels Share (Кен Лоуч, Драма, комедия, 2012) [BDRip 720 ...
  • Эволюция Борна / The Bourne Legacy (Тони Гилрой, Боевик, триллер, детектив, ...
  • Бункер / La cara oculta (Андрес Баиз, триллер, 2011) [BDRip 720p, Профессио ...
  • Информация
    Посетители, находящиеся в группе Гости, не могут оставлять комментарии к данной публикации.