вход на сайт

Имя пользователя :
Пароль :

Восстановление пароля Регистрация
Дневник слабака 3 / Diary of a Wimpy Kid: Dog Days (Дэвид Бауэрс, комедия, семейный, 2012) [BDRip 720p, Профессиональный (многоголосый закадровый) + Оригинал + SUB]
Рейтинг:
(голосов: 1)



[img]{THEME}/images/logopost.png[/img]



Дневник слабака 3 / Diary of a Wimpy Kid: Dog Days


Год выпуска: 2012
Страна: США, Канада
Производство: Color Force, Fox 2000 Pictures, TCF Vancouver Productions
Жанр: комедия, семейный

Режиссёр: Дэвид Бауэрс
В ролях: Захари Гордан, Стив Зан, Роберт Капрон, Рэйчел Харрис, Пейтон Лист, Кевин Джеймс, Эми Эстерль, Расселл Робертс, Девон Бостик, Каран Брэр, Лэйн МакНил, Эмили Холмс, Энн Опеншоу, Альф Хамфриз
Перевод: Дубляж, Оригинал (английский)
Субтитры: Russian, Ukrainian, English

Описание: Школа закончилась и Грэг готов к теплым летним денькам. Точнее был готов до того момента, когда все его далеко идущие планы на лето в одночасье накрылись медным тазом. Чем же он теперь будет заниматься все лето?

Релиз от:




Качество: BDRip 720p | Сэмпл
Продолжительность: 01:33:57 час.


Формат: MKV
Видео кодек: x264
Аудио кодек: DTS
Видео: 1280x544 (2.35:1), 23.976 fps, x264 ~9 500 kbps avg, 0.569 bit/pixel
Аудио#1: 48 kHz, DTS, 3/2 (L,C,R,l,r) + LFE ch, ~755 kbps- (Дубляж)
Аудио#2: 48 kHz, DTS, 3/2 (L,C,R,l,r) + LFE ch, ~1510 kbps - (Оригинал)

Дата премьеры (мир): 3 августа 2012

MediaInfo ▼General
Unique ID : 187995080013765860021230356753111522070 (0x8D6E890FF2B64B64A3026CA79A871B16)
Complete name : Dnevnik.slabaka.3.2012.P.BDRip.720p.IRONCLUB.mkv
Format : Matroska
Format version : Version 2
File size : 7.72 GiB
Duration : 1h 33mn
Overall bit rate : 11.8 Mbps
Movie name : IRONCLUB
Encoded date : UTC 2012-11-24 06:21:15
Writing application : mkvmerge v4.9.1 (Ich will) built on Jul 11 2011 23:53:15
Writing library : libebml v1.2.1 + libmatroska v1.1.1

Video
ID : 1
Format : AVC
Format/Info : Advanced Video Codec
Format profile : [email protected]
Format settings, CABAC : Yes
Format settings, ReFrames : 12 frames
Codec ID : V_MPEG4/ISO/AVC
Duration : 1h 33mn
Bit rate : 9 500 Kbps
Width : 1 280 pixels
Height : 544 pixels
Display aspect ratio : 2.35:1
Frame rate : 23.976 fps
Color space : YUV
Chroma subsampling : 4:2:0
Bit depth : 8 bits
Scan type : Progressive
Bits/(Pixel*Frame) : 0.569
Stream size : 6.08 GiB (79%)
Title : Diary of a Wimpy Kid: Dog Days 2012 720p BluRay DTS x264-IRONCLUB
Writing library : x264 core 129 r2230 1cffe9f
Encoding settings : cabac=1 / ref=12 / deblock=1:-3:-3 / analyse=0x3:0x113 / me=umh / subme=11 / psy=1 / psy_rd=1.20:0.00 / mixed_ref=1 / me_range=48 / chroma_me=1 / trellis=2 / 8x8dct=1 / cqm=0 / deadzone=21,11 / fast_pskip=0 / chroma_qp_offset=-2 / threads=12 / lookahead_threads=2 / sliced_threads=0 / nr=0 / decimate=1 / interlaced=0 / bluray_compat=0 / constrained_intra=0 / bframes=9 / b_pyramid=2 / b_adapt=2 / b_bias=0 / direct=3 / weightb=1 / open_gop=0 / weightp=2 / keyint=250 / keyint_min=23 / scenecut=40 / intra_refresh=0 / rc_lookahead=60 / rc=2pass / mbtree=0 / bitrate=9500 / ratetol=1.0 / qcomp=0.75 / qpmin=0 / qpmax=69 / qpstep=4 / cplxblur=20.0 / qblur=0.5 / vbv_maxrate=50000 / vbv_bufsize=62500 / nal_hrd=none / ip_ratio=1.30 / pb_ratio=1.10 / aq=1:0.85
Language : English
Default : Yes
Forced : Yes
Matrix coefficients : BT.709-5, BT.1361, IEC 61966-2-4 709, SMPTE RP177

Audio #1
ID : 2
Format : DTS
Format/Info : Digital Theater Systems
Codec ID : A_DTS
Duration : 1h 33mn
Bit rate mode : Constant
Bit rate : 755 Kbps
Channel(s) : 6 channels
Channel positions : Front: L C R, Side: L R, LFE
Sampling rate : 48.0 KHz
Bit depth : 24 bits
Compression mode : Lossy
Stream size : 507 MiB (6%)
Title : DTS 5.1 @ 768 kbps - MVO, BD CEE
Language : Russian
Default : Yes
Forced : Yes

Audio #2
ID : 3
Format : DTS
Format/Info : Digital Theater Systems
Codec ID : A_DTS
Duration : 1h 33mn
Bit rate mode : Constant
Bit rate : 1 510 Kbps
Channel(s) : 6 channels
Channel positions : Front: L C R, Side: L R, LFE
Sampling rate : 48.0 KHz
Bit depth : 24 bits
Compression mode : Lossy
Stream size : 1 015 MiB (13%)
Title : DTS 5.1 @ 1536 kbps
Language : English
Default : No
Forced : No

Text #1
ID : 4
Format : UTF-8
Codec ID : S_TEXT/UTF8
C
ed5e5475279afb5ab1026c309520b228c6590e17Дневник слабака 3 / Diary of a Wimpy Kid: Dog Days (Дэвид Бауэрс, комедия, семейный, 2012) [BDRip 720p, Профессиональный (многоголосый закадровый) + Оригинал + SUB] Дневник слабака 3 / Diary of a Wimpy Kid: Dog Days (Дэвид Бауэрс, комедия, семейный, 2012) [BDRip 720p, Профессиональный (многоголосый закадровый) + Оригинал + SUB] " />

Аплоадер: Админ, дата: 24-11-2012, 19:54, торрент скачан: 359 раз

Понравилась раздача? Посмотрите эти:
  • Суррогат / The Sessions (Бен Луин, драма, 2012) [BDRip 720p, Профессиональн ...
  • Весенние надежды / Hope Springs (Дэвид Фрэнкел, Драма, мелодрама, комедия, ...
  • Толстяк на ринге / Here Comes the Boom (Фрэнк Корачи, Боевик, комедия, 201 ...
  • Зубная фея 2 / Tooth Fairy 2 (Алекс Замм, комедия, семейный, 2012) [BDRip 7 ...
  • Дневник слабака 2: Правила Родрика / Diary of a Wimpy Kid: Rodrick Rules(Дэ ...
  • Дневник слабака 3 / Diary of a Wimpy Kid: Dog Days (Дэвид Бауэрс, Комедия, ...
  • Дневник слабака (Трилогия) / Diary of a Wimpy Kid (Trilogy) (Тор Фройдентал ...
  • Дневник слабака 3 / Diary of a Wimpy Kid: Dog Days (Дэвид Бауэрс, Комедия, ...
  • Закон доблести / Act of Valor (Майк МакКой, Скотт Во, боевик, триллер, прик ...
  • Проект X: Дорвались / Project X (Нима Нуризаде, комедия, 2012) [BDRip 720p, ...
  • Джок / Jock (Дункан МакНили, мультфильм, комедия, приключения, семейный, 20 ...
  • «Весёлые» каникулы / Get the Gringo (Адриан Грюнберг, Боевик, комедия, 2012 ...
  • Ворон / The Raven (Джеймс МакТиг, Триллер, детектив, 2012) [BDRip 720p, Дуб ...
  • Немножко женаты / The Five-Year Engagement (Николас Столлер, Мелодрама, ком ...
  • Семь футов / Seven Below (Кевин Каррауэй, Ужасы, триллер, 2012) [BDRip 720p ...
  • Медальон / Stolen (Саймон Уэст, Боевик, триллер, 2012) [BDRip 720p, Дубляж, ...
  • Судный день / The Day (Дуглас Арниокоски, Фантастика, триллер, драма, 2011) ...
  • Третий лишний / Ted (Сет МакФарлейн, Фэнтези, комедия, 2012) [BDRip 720p, Д ...
  • Патруль / End of Watch (Дэвид Эйр, Триллер, драма, криминал, 2012) [BDRip 7 ...
  • Дневник слабака / Diary of a Wimpy Kid (Тор Фреденталь, Комедия, Детский, ...
  • [EN] Дневник слабака 2 / Diary of a Wimpy Kid: Rodrick Rules (Дэвид Бауэрс, ...
  • Дневник слабака 2 / Diary of a Wimpy Kid: Rodrick Rules (Дэвид Бауэрс, коме ...
  • Дневник слабака 2 / Diary of a Wimpy Kid: Rodrick Rules (Дэвид Бауэрс, коме ...
  • Дневник слабака 3 / Diary of a Wimpy Kid: Dog Days (Дэвид Бауэрс, Комедия, ...
  • Дневник слабака 3 / Diary of a Wimpy Kid: Dog Days (Дэвид Бауэрс, комедия, ...
  • Информация
    Посетители, находящиеся в группе Гости, не могут оставлять комментарии к данной публикации.