вход на сайт

Имя пользователя :
Пароль :

Восстановление пароля Регистрация
Третий лишний / Ted (Сет МакФарлейн, Фэнтези, комедия, 2012) [BDRip 1080p, Дубляж, Оригинал (английский), Commentary, Sub]
Рейтинг:
(голосов: 1)



[img]{THEME}/images/logopost.png[/img]



Третий лишний / Ted
«В любви не без медведя»


Год выпуска: 2012
Страна: США
Производство: Universal Pictures, Smart Entertainment, Bluegrass Films
Жанр: Фэнтези, комедия

Режиссёр: Сет МакФарлейн
В ролях: Марк Уолберг, Мила Кунис, Сет МакФарлейн, Джоэль МакХэйл, Джованни Рибизи, Патрик Варбертон, Мэтт Уолш, Джессика Барт, Аэдин Минкс, Билл Смитрович

Перевод: Дубляж, Оригинал (английский), Commentary
Субтитры: Russian [Forced, Full], English [Full, Comentary]

Описание: Джон влюблен в красавицу Лори, у него отличная работа и большие планы на будущее. Но в их отношения вмешивается третий, давний друг Джона — Тед. Он отрывается сутки напролет, предпочитает случайные связи и не желает терять друга. Но никто на самом деле не знает на что он способен, ведь Тед — большой плюшевый медведь.

Релиз от:



Качество: BDRip 1080p [HDChina] | Сэмпл
Продолжительность: 01:46:03час.


Формат:MKV
Видео кодек: x264
Аудио кодек: AC3, DTS
Видео: 1920x1040 (1.85:1), 23.976 fps, x264 ~ 15.8 mb/s 0.330 bit/pixel
Аудио#1: 48 kHz, DTS, 3/2 (L,C,R,l,r) + LFE ch, ~755.00 kbps avg- (Дубляж)
Аудио#2: 48 kHz, AC3, 2/0 (L,R) ch, ~192.00 kbps avg (Commentary)
Аудио#3: 48 kHz/24-bit, DTS, 3/2 (L,C,R,l,r) + LFE ch, ~1510.00 kbps avg - (Оригинал)

Дата премьеры (мир): 29 июня 2012
Дата премьеры (РФ): 2 августа 2012, «UPI»

MediaInfo ▼General
Unique ID : 231349045364527013881716919464080471217 (0xAE0C3495928BA4A08E173FCB315874B1)
Complete name : Tretij.lishnij.2012.D.BDRip.1080p.IRONCLUB.mkv
Format : Matroska
Format version : Version 2
File size : 13.5 GiB
Duration : 1h 46mn
Overall bit rate : 18.3 Mbps
Movie name : IRONCLUB
Encoded date : UTC 2012-11-09 12:23:18
Writing application : mkvmerge v4.9.1 (Ich will) built on Jul 11 2011 23:53:15
Writing library : libebml v1.2.1 + libmatroska v1.1.1

Video
ID : 1
Format : AVC
Format/Info : Advanced Video Codec
Format profile : [email protected]
Format settings, CABAC : Yes
Format settings, ReFrames : 4 frames
Codec ID : V_MPEG4/ISO/AVC
Duration : 1h 46mn
Bit rate : 15.8 Mbps
Width : 1 920 pixels
Height : 1 040 pixels
Display aspect ratio : 1.85:1
Frame rate : 23.976 fps
Color space : YUV
Chroma subsampling : 4:2:0
Bit depth : 8 bits
Scan type : Progressive
Bits/(Pixel*Frame) : 0.330
Stream size : 11.4 GiB (85%)
Title : Ted.2012.1080p.BluRay.x264.DTS-HDChina
Writing library : x264 core 128 r2216+688+33 06dac27 tMod+MixAQ [[email protected]:2:0 X86_64]
Encoding settings : cabac=1 / ref=4 / deblock=1:-3:-3 / analyse=0x3:0x113 / me=umh / subme=11 / psy=1 / fade_compensate=0.00 / psy_rd=1.15:0.00 / mixed_ref=1 / me_range=48 / chroma_me=1 / trellis=2 / 8x8dct=1 / cqm=0 / deadzone=21,11 / fast_pskip=0 / chroma_qp_offset=-2 / threads=18 / lookahead_threads=3 / sliced_threads=0 / nr=0 / decimate=0 / interlaced=0 / bluray_compat=0 / constrained_intra=0 / fgo=0 / bframes=8 / b_pyramid=2 / b_adapt=2 / b_bias=0 / direct=3 / weightb=1 / open_gop=0 / weightp=2 / keyint=240 / keyint_min=24 / scenecut=40 / intra_refresh=0 / rc_lookahead=240 / rc=2pass / mbtree=1 / bitrate=15800 / ratetol=1.0 / qcomp=0.70 / qpmin=0 / qpmax=69 / qpstep=4 / cplxblur=20.0 / qblur=0.5 / ip_ratio=1.10 / aq=4 / aq-strength=0.90 / aq-sensitivity=10.00 / aq-ifactor=1.00 / aq-pfactor=1.00 / aq-bfactor=1.00 / aq2=0
Language : English
Default : Yes
Forced : Yes

Audio #1
ID : 2
Format : DTS
Format/Info : Digital Theater Systems
Codec ID : A_DTS
Duration : 1h 46mn
Bit rate mode : Constant
Bit rate : 755 Kbps
Channel(s) : 6 channels
Channel positions : Front: L C R, Side: L R, LFE
Sampling rate : 48.0 KHz
Bit depth : 24 bits
Compression mode : Lossy
Stream size : 572 MiB (4%)
Title : DTS 5.1 @ 768 kbps - Dub, BD CEE
Language : Russian
Default : Yes
Forced : Yes

Audio #2
ID : 3
Format : DTS
Format/Info : Digital Theater Systems
Codec ID : A_DTS
Duration : 1h 46mn
Bit rate mode
893e4cb78ee039263abcb1749df3569f9a967ea6Третий лишний / Ted (Сет МакФарлейн, Фэнтези, комедия, 2012) [BDRip 1080p, Дубляж, Оригинал (английский), Commentary, Sub] Третий лишний / Ted (Сет МакФарлейн, Фэнтези, комедия, 2012) [BDRip 1080p, Дубляж, Оригинал (английский), Commentary, Sub] " />

Аплоадер: Админ, дата: 9-11-2012, 23:15, торрент скачан: 359 раз

Понравилась раздача? Посмотрите эти:
  • Третий лишний / Ted [Theatrical cut] (Сет МакФарлейн, Фэнтези, комедия, 201 ...
  • Третий лишний / Ted [Theatrical cut] (Сет МакФарлейн, Фэнтези, комедия, 201 ...
  • Третий лишний / Ted (Сет МакФарлейн, Фэнтези, комедия, 2012) [BDRip-AVC, Ду ...
  • Третий лишний / Ted (Сет МакФарлейн, Фэнтези, комедия, 2012) [BDRip-AVC, Ду ...
  • Третий лишний / Ted (Сет МакФарлейн, Фэнтези, комедия, 2012) [BDRip-AVC, Ду ...
  • Третий лишний / Ted (Сет МакФарлейн, Фэнтези, комедия, 2012) [HDRip-AVC, Ду ...
  • Третий лишний / Ted [Unrated] (Сет МакФарлейн, Фэнтези, комедия, 2012) [BDR ...
  • Дружинники / The Watch (Акива Шаффер, Фантастика, комедия, 2012) [BDRip 108 ...
  • Третий лишний / Ted (Сет МакФарлейн, Фэнтези, комедия, 2012) [BDRip 720p, Д ...
  • Третий лишний / Ted [UNRATED] (Сет МакФарлейн, фэнтези, комедия, 2012) [BDR ...
  • [Phone, iPod] Третий лишний / Ted (Сет МакФарлейн, фэнтези, комедия, 2012) ...
  • Третий лишний / Ted [UNRATED] (Сет МакФарлейн, Фэнтези, комедия, 2012) [BD- ...
  • Третий лишний / Ted [UNRATED] (Сет МакФарлейн, Фэнтези, комедия, 2012) [BDR ...
  • Третий лишний / Ted [UNRATED] (Сет МакФарлейн, Фэнтези, Комедия, 2012) [480 ...
  • Третий лишний / Ted [UNRATED] (Сет МакФарлейн, Фэнтези, Комедия, 2012) [320 ...
  • Третий лишний / Ted [UNRATED] (Сет МакФарлейн, Фэнтези, комедия, 2012) [BDR ...
  • Третий лишний / Ted [UNRATED] (Сет МакФарлейн, Фэнтези, комедия, 2012) [HDR ...
  • Третий лишний / Ted [UNRATED] (Сет МакФарлейн, Фэнтези, комедия, 2012) [HDR ...
  • Третий лишний / Ted (Сет МакФарлейн, фэнтези, комедия, 2012) [BDRip, Дублир ...
  • Третий лишний / Ted (Сет МакФарлейн, Фэнтези, комедия, 2012) [DVD9, Дубляж, ...
  • Третий лишний / Ted (Сет МакФарлейн, Фэнтези, комедия, 2012) [DVD5, Дубляж, ...
  • Третий лишний / Ted (Сет МакФарлейн, Фэнтези, комедия, 2012) [Blu-ray [CEE] ...
  • Третий лишний / Ted (Сет МакФарлейн, Фэнтези, комедия, 2012) [BDRip, Дубляж ...
  • Третий лишний / Ted (Сет МакФарлейн, Фэнтези, комедия, 2012) [BDRip, Дубляж ...
  • Третий лишний / Ted (Сет МакФарлейн, Фэнтези, комедия, 2012) [BDRip, Дубляж ...
  • Информация
    Посетители, находящиеся в группе Гости, не могут оставлять комментарии к данной публикации.