вход на сайт

Имя пользователя :
Пароль :

Восстановление пароля Регистрация
Так себе каникулы / Old Dogs (Уолт Бекер, комедия, 2009) [BDRip 1080p, Профессиональный (полное дублирование), субтитры]
Рейтинг:
(голосов: 1)



[img]{THEME}/images/logopost.png[/img]



Так себе каникулы / Old Dogs

Год выпуска: 2009
Страна:США,
Производство: Walt Disney Pictures
Жанр: комедия

Режиссёр: Уолт Бекер
В ролях:Джон Траволта, Робин Уильямс, Келли Престон, Коннер Рэйберн, Элла Блю Траволта, Лори Лафлин, Сет Грин, Берни Мак, Мэтт Диллон, Энн-Маргрет

Перевод: Профессиональный (полное дублирование)
Субтитры: Русские

Описание: Двое старых приятелей и деловых партнеров внезапно оказываются в ситуации, когда им приходится заняться воспитанием двух шумных близнецов-шестилеток. Более того, переполох не ограничивается домашними заботами. Детишек надо еще вывезти отдыхать в летний лагерь, а там и близняшки, и их опекуны оказываются во власти придирчивого вожатого — и все это накануне важной сделки, от которой зависит будущее предприятия горе-опекунов. Справятся ли закоренелые холостяки с этой непростой ситуацией?

Качество: BDRip 1080p
Продолжительность: 01:28:06 час.

Формат:MKV
Видео кодек:H.264
Видео: 1920x1032 (1,860), 6703 Kbps, 23.976 fps, 0,141bit/ pix
Аудио: 48 kHz, AC3, 6ch, 384 kbps
MI ▼
Общее
Формат : Matroska
Версия формата : Version 2
Размер файла : 4,36 Гбайт
Продолжительность : 1 ч. 28 м.
Общий поток : 7085 Кбит/сек
Название фильма : Так себе каникулы / Old Dogs (2009) BDRip 1080p
Дата кодирования : UTC 2012-01-22 07:49:05
Программа кодирования : mkvmerge v5.2.0 (I cant explain) built on Dec 18 2011 18:12:03
Библиотека кодирования : libebml v1.2.3 + libmatroska v1.3.0

Видео
Идентификатор : 1
Формат : AVC
Формат/Информация : Advanced Video Codec
Профиль формата : [email protected]
Параметр CABAC формата : Да
Параметр ReFrames формата : 4 кадра
Идентификатор кодека : V_MPEG4/ISO/AVC
Продолжительность : 1 ч. 28 м.
Битрейт : 6703 Кбит/сек
Ширина : 1920 пикселей
Высота : 1032 пикселя
Соотношение сторон : 1,860
Частота кадров : 23,976 кадра/сек
Цветовое пространство : YUV
Субдискретизация насыщенности : 4:2:0
Битовая глубина : 8 бит
Тип развёртки : Прогрессивная
Бит/(Пиксели*Кадры) : 0.141
Размер потока : 4,04 Гбайт (93%)
Библиотека кодирования : x264 core 92 r1510 33d382a
Настройки программы : cabac=1 / ref=4 / deblock=1:0:0 / analyse=0x3:0x133 / me=umh / subme=10 / psy=1 / psy_rd=1.00:0.10 / mixed_ref=1 / me_range=32 / chroma_me=1 / trellis=2 / 8x8dct=1 / cqm=0 / deadzone=21,11 / fast_pskip=0 / chroma_qp_offset=-3 / threads=6 / sliced_threads=0 / nr=0 / decimate=1 / interlaced=0 / constrained_intra=0 / bframes=6 / b_pyramid=2 / b_adapt=2 / b_bias=0 / direct=3 / wpredb=1 / wpredp=2 / keyint=240 / keyint_min=24 / scenecut=40 / intra_refresh=0 / rc_lookahead=65 / rc=2pass / mbtree=1 / bitrate=6703 / ratetol=1.0 / qcomp=0.60 / qpmin=10 / qpmax=51 / qpstep=4 / cplxblur=20.0 / qblur=0.5 / ip_ratio=1.40 / aq=1:1.00
Язык : English

Аудио
Идентификатор : 2
Формат : AC-3
Формат/Информация : Audio Coding 3
Расширение режима : CM (complete main)
Идентификатор кодека : A_AC3
Продолжительность : 1 ч. 28 м.
Вид битрейта : Постоянный
Битрейт : 384 Кбит/сек
Каналы : 6 каналов
Расположение каналов : Front: L C R, Side: L R, LFE
Частота : 48,0 КГц
Битовая глубина : 16 бит
Метод сжатия : С потерями
Размер потока : 242 Мбайт (5%)
Заголовок : Дубляж
Язык : Russian

Текст
Идентификатор : 3
Формат : PGS
Режим смешивания : zlib
Идентификатор кодека : S_HDMV/PGS
Идентификатор кодека/Информация : The same subtitle format used on BDs/HD-DVDs
Язык : Russian


0c70a5e9c58c7709f0db96c8470fcb293e9e46d3Так себе каникулы / Old Dogs (Уолт Бекер, комедия, 2009) [BDRip 1080p, Профессиональный (полное дублирование), субтитры] Так себе каникулы / Old Dogs (Уолт Бекер, комедия, 2009) [BDRip 1080p, Профессиональный (полное дублирование), субтитры] " />

Аплоадер: Админ, дата: 31-10-2012, 17:42, торрент скачан: 359 раз

Понравилась раздача? Посмотрите эти:
  • Андроид / Android (App) (Бобо Боерманс, Tриллер, 2013) [BDRip-AVC, Професси ...
  • Мальчишник: Часть III / The Hangover Part III (Тодд Филлипс, Комедия, 2013) ...
  • Исходный код / Source Code (Дункан Джонс, фантастика, боевик, триллер, драм ...
  • [3D] Zомби каникулы (Кирилл Кемниц, Ужасы, триллер, комедия, 2013) [BDRip 1 ...
  • Больше, чем любовь / A Lot Like Love (Найджел Коул, Драма, мелодрама, комед ...
  • Переполох на районе / Les Kaïra (Франк Гастамбиде, комедия, 2012) [BDRip 10 ...
  • Даю год / I Give It a Year (Дэн Мазер, мелодрама, комедия, 2012) [BDRip-AVC ...
  • Соломенные псы / Straw Dogs (Род Лури, Триллер, драма, криминал , 2011) [BD ...
  • Челюсти 3D / Shark Night 3D ( Дэвид Р. Эллис, ужасы, 2011) [BDRip-AVC, Проф ...
  • Переростки / The Inbetweeners (Бен Палмер, Комедия, 2011) [BDRip-AVC, Профе ...
  • Так себе каникулы / Old Dogs (Уолт Бекер, комедия, семейный, 2009) [BDRip-A ...
  • Четыре Рождества / Four Christmases (Сет Гордон, Драма, мелодрама, комедия, ...
  • Дикие собаки / Wild Dogs (Кэтрин Хикс, короткометражный анимационный фильм, ...
  • Правдивая история Кота в сапогах / La véritable histoire du Chat Botté (Риш ...
  • История игрушек: Гавайские каникулы / Toy Story: Hawaiian Vacation (Гари ...
  • Заражение / Contagion (Стивен Содерберг, Фантастика, 2011) [BDRip 1080p, Пр ...
  • Переростки / The Inbetweeners (Бен Палмер / Ben Palmer, комедия, 2011) [BDR ...
  • Схватка / The Grey (Джо Карнахан, боевик, триллер, драма, приключения, 2012 ...
  • Стыд / Shame (Стив МакКуин, драма, 2011) [BDRip 1080p, полное дублирование, ...
  • Мстители / The Avengers (Джосс Уидон, фантастика, боевик, триллер, 2012) [B ...
  • Большой отрыв БОБа / B.O.B.s Big Break (Роберт Портер, короткометражка, ан ...
  • Петля времени / Looper (Райан Джонсон, Фантастика, боевик, триллер, кримина ...
  • Так себе каникулы / Old Dogs (Уолт Бекер, комедия, семейный, 2009) [DVDRip, ...
  • Так себе каникулы / Old Dogs (Уолт Бекер, комедия, семейный, 2009) [BDRip, ...
  • Так себе каникулы / Old Dogs (Уолт Бекер / Walt Becker, комедия, семейный, ...
  • Информация
    Посетители, находящиеся в группе Гости, не могут оставлять комментарии к данной публикации.