вход на сайт

Имя пользователя :
Пароль :

Восстановление пароля Регистрация
Белоснежка и охотник [Театральная версия] / Snow White and the Huntsman [Theatrical Cut] (Руперт Сандерс, фэнтези, боевик, драма, приключения, 2012) [BDRip-AVC, Дублированный + Оригинал + SUB]
Рейтинг:
(голосов: 1)



[img]{THEME}/images/logopost.png[/img]



Белоснежка и охотник / Snow White and the Huntsman
[Театральная версия / Theatrical Cut]
«Лишь одна будет править»

Год выпуска: 2012
Страна: США | Великобритания
Производство: Roth Films, Universal Pictures
Жанр: фэнтези, боевик, драма, приключения

Режиссёр: Руперт Сандерс | Rupert Sanders
В ролях: Кристен Стюарт (Snow White), Крис Хемсворт (The Huntsman), Шарлиз Терон (The Huntsman), Сэм Клафлин (William), Сэм Спруэлл (Finn), Иэн МакШейн (Beith), Боб Хоскинс (Muir), Рэй Уинстон (Gort), Ник Фрост (Gort), Эдди Марсан (Duir)

Перевод: 1 - Профессиональный (полное дублирование)
2 - Оригинал (Английский)
Субтитры: softsub (SRT) | русские (Full), английские (Full)

Описание:
Тьма приближается. Она прячется в лесах, спускается с гор, застилает небо. Никто не укроется от магического зеркала Королевы, живущей в неприступном замке, охраняемом бесчисленной армией. Но над Белоснежкой злые чары не властны. И тогда Королева отправляет Охотника, чтобы он принес ей сердце соперницы. Но очарованный Белоснежкой, он встает на ее сторону. Грядет великая битва. Лишь одна будет править.Дата премьеры (мир): 30 мая 2012
Дата премьеры (РФ): 14 июня 2012, «UPI»
Релиз на DVD: 27 сентября 2012, «Двадцатый Век Фокс СНГ»
Релиз на Blu-Ray: 27 сентября 2012, «Двадцатый Век Фокс СНГ»

Качество: BDRip - AVC | исх. Белоснежка и охотник / Snow White and the Huntsman (2012) [2-in-1: Theatrical & Extended Cut] Blu-ray EUR 1080p AVC DD5.1
Продолжительность: 02:07:14

Формат: MKV
Видео кодек: H.264
Аудио кодек: AC3
Видео: 1280x544 (2.35:1), 23,976 fps, H.264 ~4 524 kbps avg, 0.271 bit/pixel
Аудио #1: 48 kHz, AC3, 3/2 (L,C,R,l,r) + LFE ch, ~384.00 kbps avg | Профессиональный (полное дублирование)
Аудио #2: 48 kHz, AC3, 3/2 (L,C,R,l,r) + LFE ch, ~384.00 kbps avg | Оригинал (Английский)
MediaInfo ▼General
Format : Matroska
Format version : Version 2
File size : 4.71 GiB
Duration : 2h 7mn
Overall bit rate : 5 294 Kbps
Encoded date : UTC 2012-09-22 03:25:16
Writing application : mkvmerge v4.0.0 (The Stars were mine) built on Jun 6 2010 16:18:42
Writing library : libebml v1.0.0 + libmatroska v1.0.0

Video
ID : 1
Format : AVC
Format/Info : Advanced Video Codec
Format profile : [email protected]
Format settings, CABAC : Yes
Format settings, ReFrames : 10 frames
Codec ID : V_MPEG4/ISO/AVC
Duration : 2h 7mn
Bit rate : 4 524 Kbps
Width : 1 280 pixels
Height : 544 pixels
Display aspect ratio : 2.35:1
Frame rate : 23.976 fps
Color space : YUV
Chroma subsampling : 4:2:0
Bit depth : 8 bits
Scan type : Progressive
Bits/(Pixel*Frame) : 0.271
Stream size : 3.93 GiB (84%)
Writing library : x264 core 119 r2106 07efeb4
Encoding settings : cabac=1 / ref=10 / deblock=1:-2:-1 / analyse=0x3:0x113 / me=umh / subme=10 / psy=1 / psy_rd=1.02:0.10 / mixed_ref=1 / me_range=32 / chroma_me=1 / trellis=2 / 8x8dct=1 / cqm=0 / deadzone=21,11 / fast_pskip=0 / chroma_qp_offset=-3 / threads=6 / sliced_threads=0 / nr=0 / decimate=0 / interlaced=0 / bluray_compat=0 / constrained_intra=0 / bframes=9 / b_pyramid=2 / b_adapt=2 / b_bias=0 / direct=3 / weightb=1 / open_gop=0 / weightp=2 / keyint=240 / keyint_min=23 / scenecut=40 / intra_refresh=0 / rc_lookahead=60 / rc=2pass / mbtree=1 / bitrate=4524 / ratetol=1.0 / qcomp=0.67 / qpmin=0 / qpmax=69 / qpstep=4 / cplxblur=20.0 / qblur=0.5 / ip_ratio=1.40 / aq=1:1.00
Language : English
Default : No
Forced : No

Audio #1
ID : 2
Format : AC-3
Format/Info : Audio Coding 3
Mode extension : CM (complete main)
Format settings, Endianness : Big
Codec ID : A_AC3
Duration : 2h 7mn
Bit rate mode : Constant
Bit rate : 384 Kbps
Channel(s) : 6 channels
Channel positions : Front: L C R, Side: L R, LFE
Sampling rate : 48.0 KHz
Bit depth : 16 bits
Compression mode : Lossy
Stream size : 350 MiB (7%)
Title : Дубляж
Language : Russian
Default : Yes
For
632d1acd947dbc524f1fb76cff91189dd441e87eБелоснежка и охотник [Театральная версия] / Snow White and the Huntsman [Theatrical Cut] (Руперт Сандерс, фэнтези, боевик, драма, приключения, 2012) [BDRip-AVC, Дублированный + Оригинал + SUB] Белоснежка и охотник [Театральная версия] / Snow White and the Huntsman [Theatrical Cut] (Руперт Сандерс, фэнтези, боевик, драма, приключения, 2012) [BDRip-AVC, Дублированный + Оригинал + SUB] " />

Аплоадер: Админ, дата: 29-10-2012, 00:53, торрент скачан: 359 раз

Понравилась раздача? Посмотрите эти:
  • Белоснежка и охотник / Snow White and the Huntsman (Руперт Сандерс, фэнтези ...
  • Белоснежка и охотник [Расширенная версия] / Snow White and the Huntsman [UN ...
  • Белоснежка и охотник / Snow White and the Huntsman (Руперт Сандерс, фэнтези ...
  • Белоснежка и охотник [Расширенная версия] / Snow White and the Huntsman [UN ...
  • Белоснежка и охотник [Расширенная версия] / Snow White and the Huntsman [UN ...
  • Белоснежка и охотник [Театральная версия] / Snow White and the Huntsman [Th ...
  • Белоснежка и охотник [Театральная версия] / Snow White and the Huntsman [Th ...
  • Белоснежка и охотник [Расширенная версия] / Snow White and the Huntsman [Ex ...
  • Белоснежка и охотник [Расширенная версия] / Snow White and the Huntsman [Ex ...
  • Белоснежка и охотник [Расширенная версия] / Snow White and the Huntsman [Ex ...
  • Белоснежка и охотник [Расширенная версия] / Snow White and the Huntsman [U ...
  • Белоснежка и охотник [Расширенная версия] / Snow White and the Huntsman [UN ...
  • Белоснежка и охотник [Театральная версия] / Snow White and the Huntsman [Th ...
  • Белоснежка и охотник [Расширенная версия] / Snow White and the Huntsman [UN ...
  • Белоснежка и охотник [Расширенная версия] / Snow White and the Huntsman [UN ...
  • Белоснежка и охотник [Театральная версия] / Snow White and the Huntsman [Th ...
  • Белоснежка и охотник / Snow White and the Huntsman [2-in-1: Theatrical & Di ...
  • [Phone, iPod] Белоснежка и охотник / Snow White and the Huntsman (Руперт Са ...
  • Белоснежка и охотник [Расширенная версия] / Snow White and the Huntsman [UN ...
  • Белоснежка и охотник [Расширенная версия] / Snow White and the Huntsman [Ex ...
  • Белоснежка и охотник [Расширенная версия] / Snow White and the Huntsman [UN ...
  • Белоснежка и охотник [Театральная версия] / Snow White and the Huntsman [Th ...
  • Белоснежка и охотник / Snow White and the Huntsman (Руперт Сандерс, фэнтези ...
  • Белоснежка и охотник [Театральная версия] / Snow White and the Huntsman [Th ...
  • Белоснежка и охотник / Snow White and the Huntsman (Руперт Сандерс / Rupert ...
  • Информация
    Посетители, находящиеся в группе Гости, не могут оставлять комментарии к данной публикации.