вход на сайт

Имя пользователя :
Пароль :

Восстановление пароля Регистрация
Пол: Секретный материальчик (театральная версия) / Paul (Theatrical Cut) (Грег Моттола, комедия, фантастика, 2011) [BDRip 1080p, DUB Sub rus + original eng]
Рейтинг:
(голосов: 1)



[img]{THEME}/images/logopost.png[/img]



Пол: Секретный материальчик (театральная версия) / Paul (Theatrical Cut)

Год выпуска: 2011
Страна: Великобритаия, США
Производство: Universal
Жанр: комедия, фантастика

Режиссёр: Грег Моттола / Greg Mottola
В ролях: Саймон Пегг, Ник Фрост, Сет Роген, Джейн Линч, Сигурни Уивер, Джейсон Бейтман, Кристен Уиг, Билл Хэйдер, Блайт Даннер, Джефри Тэмбор

Перевод: Дублированный + оригинал
Субтитры: есть, русские (Forced)

Описание: Два английских гика отправляются на одно из самых значимых фанатских событий в области фантастики — конвент ComicCon в Америке. По пути, неподалёку от известной Зоны 51, они встречают сбежавшего инопланетянина по имени Пол, который просит помочь ему добраться домой. Пытаясь спастись от правительственных агентов, герои случайно похищают женщину и натыкаются на обкуренную свидетельницу аварийной посадки Пола на Землю.

IMDB: 7.1
КиноПоиск: 7.37

Качество: BDRip 1080p
Продолжительность: 01:43:40

Формат: MKV
Главы: нет
Видео кодек: AVC
Аудио кодек: (AC3, DTS)
Видео: 1920x816 (2,35:1), 23.976 fps, 13.6 Mbps, 0.362 bit/pix
Аудио1: Русский, AC3, 6 ch, 384 kbps
Аудио2: Английский, DTS, 6 ch, 1536 kbps

MediaInfo ▼Общее
Уникальный идентификатор : 178514925581136037076603368690894320694 (0x864CB95CA15E41CC9A98E6A4D8293436)
Полное имя : C:Users1DesktopФильмыРаздачиPaul.2011.D.BDRip.1080p.mkv
Формат : Matroska
Размер файла : 11,2 Гбайт
Продолжительность : 1 ч. 43 м.
Общий поток : 15,5 Мбит/сек
Название фильма : Пол: Секретный материальчик / Paul (2011)
Дата кодирования : UTC 2011-07-02 10:37:33
Программа кодирования : mkvmerge v4.8.0 (I Got The...) сборка от May 24 2011 03:12:58
Библиотека кодирования : libebml v1.2.0 + libmatroska v1.1.0

Видео
Идентификатор : 1
Формат : AVC
Формат/Информация : Advanced Video Codec
Профиль формата : [email protected]
Параметр CABAC формата : Да
Параметр ReFrames формата : 5 кадры
Идентификатор кодека : V_MPEG4/ISO/AVC
Продолжительность : 1 ч. 43 м.
Битрейт : 13,6 Мбит/сек
Ширина : 1920 пикс.
Высота : 816 пикс.
Соотношение сторон : 2,35:1
Частота кадров : 23,976 кадр/сек
Цветовое пространство : YUV
Подвыборка цветности : 4:2:0
Битовая глубина : 8 бит
Тип развёртки : Прогрессивная
Бит/(Пиксели*Кадры) : 0.362
Размер потока : 9,63 Гбайт (86%)
Заголовок : Paul.2011.D.BDRip.1080p
Библиотека кодирования : x264 core 115 r1995 c1e60b9
Настройки программы : cabac=1 / ref=5 / deblock=1:-3:-3 / analyse=0x3:0x113 / me=umh / subme=10 / psy=1 / psy_rd=1.10:0.15 / mixed_ref=1 / me_range=48 / chroma_me=1 / trellis=2 / 8x8dct=1 / cqm=0 / deadzone=21,11 / fast_pskip=0 / chroma_qp_offset=-3 / threads=6 / sliced_threads=0 / nr=0 / decimate=1 / interlaced=0 / bluray_compat=0 / constrained_intra=0 / bframes=8 / b_pyramid=2 / b_adapt=2 / b_bias=0 / direct=3 / weightb=1 / open_gop=1 / weightp=2 / keyint=240 / keyint_min=23 / scenecut=40 / intra_refresh=0 / rc_lookahead=40 / rc=2pass / mbtree=1 / bitrate=13608 / ratetol=1.0 / qcomp=0.70 / qpmin=10 / qpmax=51 / qpstep=4 / cplxblur=20.0 / qblur=0.5 / vbv_maxrate=50000 / vbv_bufsize=62500 / nal_hrd=none / ip_ratio=1.40 / aq=1:1.00
Язык : English

Аудио #1
Идентификатор : 2
Формат : AC-3
Формат/Информация : Audio Coding 3
Расширение режима : CM (complete main)
Идентификатор кодека : A_AC3
Продолжительность : 1 ч. 43 м.
Вид битрейта : Постоянный
Битрейт : 384 Кбит/сек
Канал(ы) : 6 канала(ов)
Расположение каналов : Front: L C R, Side: L R, LFE
Частота : 48,0 КГц
Битовая глубина : 16 бит
Метод сжатия : С потерями
Размер потока : 285 Мбайт (2%)
Заголовок : AC3 5.1 @ 384 kb/s [Russian DUB R5]
Язык : Russian

Аудио #2
Идентификатор : 3
Формат : DTS
Формат/Информация : Digital Theater Systems
Идентификатор кодека : A_DTS
Продолжительность : 1 ч. 43 м.
Вид битрейта : Постоянный
Битрейт : 1510 Кбит/сек
Канал(ы) : 6 канала(ов)
Расположение каналов : Front: L C R, Side: L R, LFE
Частота : 48,0 КГц
Битовая глубина : 24 бит
Метод сжати
f9bf822f66752a9373556d6410b4f1c87de56521Пол: Секретный материальчик (театральная версия) / Paul (Theatrical Cut) (Грег Моттола, комедия, фантастика, 2011) [BDRip 1080p, DUB Sub rus + original eng] Пол: Секретный материальчик (театральная версия) / Paul (Theatrical Cut) (Грег Моттола, комедия, фантастика, 2011) [BDRip 1080p, DUB Sub rus + original eng] " />

Аплоадер: Админ, дата: 9-10-2012, 23:56, торрент скачан: 359 раз

Понравилась раздача? Посмотрите эти:
  • Поймай толстуху, если сможешь [Театральная версия] / Identity Thief [Theatr ...
  • Железный Кулак [Театральная версия] / The Man with the Iron Fists [Theatric ...
  • Пол: Секретный материальчик / Paul [Театральная версия / Theatrical Cut] (Г ...
  • Пол: Секретный материальчик / Paul [Театральная версия / Theatrical Cut] (Г ...
  • Пол: Секретный материальчик / Paul [Theatrical Cut] (Грег Моттола, фантасти ...
  • Пол: Секретный материальчик / Paul (Грег Моттола, фантастика, комедия, прик ...
  • Пол: Секретный материальчик / Paul (Грег Моттола, фантастика, комедия, 2011 ...
  • Заражение / Contagion (Стивен Содерберг, Фантастика, 2011) [BDRip 1080p, Пр ...
  • Пол: Секретный материальчик / Расширенная версия / Paul (Грег Моттола, фант ...
  • Пол: Секретный материальчик [Театральная версия] / Paul [Theatrical Cut] (Г ...
  • Пол: Секретный материальчик / Paul [Театральная версия / Theatrical Cut] (Г ...
  • Пол: Секретный материальчик / Paul [Театральная версия / Theatrical Cut] (Г ...
  • Пол: Секретный материальчик / Paul (Грег Моттола, фантастика, комедия, прик ...
  • Пол: Секретный материальчик [Расширенная версия] / Paul [Extended Cut] (Гре ...
  • Пол: Секретный материальчик / Paul [UNRATED] (Грег Моттола, фантастика, ком ...
  • Пол: Секретный материальчик / Paul [Театральная версия / Theatrical Cut] (Г ...
  • Пол: Секретный материальчик / Paul [Театральная версия / Theatrical Cut] (Г ...
  • Пол: Секретный материальчик [Расширенная версия] / Paul [Extended Cut] (Гре ...
  • Девичник в Вегасе / Bridesmaids (Пол Фейг / Paul Feig, комедия, 2011) [BDRi ...
  • Пол: Секретный материальчик / Paul (Грег Моттола, Фантастика, Комедия, Прик ...
  • Информация
    Посетители, находящиеся в группе Гости, не могут оставлять комментарии к данной публикации.