вход на сайт

Имя пользователя :
Пароль :

Восстановление пароля Регистрация
Хижина в лесу / The Cabin in the Woods (Дрю Годдард, Ужасы, фантастика, триллер, 2011) [BDRip 1080p, Дубляж, Оригинал, Sub]
Рейтинг:
(голосов: 1)



[img]{THEME}/images/logopost.png[/img]



Хижина в лесу / The Cabin in the Woods
«Думаете, знакомая история?»


Год выпуска: 2011
Страна: США
Производство: AFX Studios
Жанр: Ужасы, фантастика, триллер

Режиссёр: Дрю Годдард
В ролях: Кристен Коннолли, Крис Хемсворт, Анна Хатчисон, Фрэн Кранц, Джесси Уильямс, Брэдли Уитфорд, Ричард Дженкинс, Сигурни Уивер, Брайан Дж. Уайт, Эми Эккер.

Перевод: Дубляж, Оригинал
Субтитры: Russian, English

Описание: Шумная компания из пяти друзей сбегает на уик-энд подебоширить в изолированную от всего мира деревенскую хижину. Звучит знакомо? Ну так вы и не представляете, что вас ждёт на самом деле.

Релиз от:Качество: BDRip 1080p [HDMaNiAcS]
Продолжительность: 01:35:00 час.


Формат: MKV
Видео кодек: x264
Аудио кодек: DTS
Видео: 1920x800 (2.40:1), 23.976 fps, x264 ~11,9 mb/s, 0.322 bit/pixel
Аудио#1: 48 kHz/24-bit, DTS, 3/2 (L,C,R,l,r) + LFE ch, ~755.00 kbps avg - (Дубляж)
Аудио#2: 48 kHz, DTS, 3/2 (L,C,R,l,r) + LFE ch, ~1536.00 kbps avg- (Оригинал)


Дата премьеры (мир): 10 декабря 2011
Дата премьеры (РФ): 12 апреля 2012, «West»

MediaInfo ▼Complete name : Hizhina.v.lesu.2011.D.BDRip.1080p.IRONCLUB.mkv
Format : Matroska
Format version : Version 2
File size : 9.36 GiB
Duration : 1h 35mn
Overall bit rate : 14.1 Mbps
Movie name : IRONCLUB
Encoded date : UTC 2012-09-19 09:02:52
Writing application : mkvmerge v4.9.1 (Ich will) сборка от Jul 11 2011 23:53:15
Writing library : libebml v1.2.1 + libmatroska v1.1.1

Video
ID : 1
Format : AVC
Format/Info : Advanced Video Codec
Format profile : [email protected]
Format settings, CABAC : Yes
Format settings, ReFrames : 5 frames
Codec ID : V_MPEG4/ISO/AVC
Duration : 1h 35mn
Bit rate : 11.9 Mbps
Width : 1 920 pixels
Height : 800 pixels
Display aspect ratio : 2.40:1
Frame rate : 23.976 fps
Color space : YUV
Chroma subsampling : 4:2:0
Bit depth : 8 bits
Scan type : Progressive
Bits/(Pixel*Frame) : 0.322
Stream size : 7.67 GiB (82%)
Title : The.Cabin.in.the.Woods.2011.1080p.BluRay.DTS.x264-HDMaNiAcS
Writing library : x264 core 125 r2200 999b753
Encoding settings : cabac=1 / ref=5 / deblock=1:-3:-3 / analyse=0x3:0x113 / me=tesa / subme=11 / psy=1 / psy_rd=0.95:0.00 / mixed_ref=1 / me_range=24 / chroma_me=1 / trellis=2 / 8x8dct=1 / cqm=0 / deadzone=21,11 / fast_pskip=1 / chroma_qp_offset=-2 / threads=12 / lookahead_threads=2 / sliced_threads=0 / nr=0 / decimate=1 / interlaced=0 / bluray_compat=0 / constrained_intra=0 / bframes=8 / b_pyramid=2 / b_adapt=2 / b_bias=0 / direct=3 / weightb=1 / open_gop=0 / weightp=2 / keyint=240 / keyint_min=23 / scenecut=40 / intra_refresh=0 / rc=2pass / mbtree=0 / bitrate=11850 / ratetol=1.0 / qcomp=0.65 / qpmin=10 / qpmax=69 / qpstep=4 / cplxblur=20.0 / qblur=0.5 / ip_ratio=1.40 / pb_ratio=1.30 / aq=2:0.60
Language : English
Default : Yes
Forced : Yes

Audio #1
ID : 2
Format : DTS
Format/Info : Digital Theater Systems
Codec ID : A_DTS
Duration : 1h 35mn
Bit rate mode : Constant
Bit rate : 755 Kbps
Channel(s) : 6 channels
Channel positions : Front: L C R, Side: L R, LFE
Sampling rate : 48.0 KHz
Bit depth : 24 bits
Compression mode : Lossy
Stream size : 513 MiB (5%)
Title : DTS 5.1 @ 755 kbps - Dub, R5
Language : Russian
Default : Yes
Forced : Yes

Audio #2
ID : 3
Format : DTS
Format/Info : Digital Theater Systems
Codec ID : A_DTS
Duration : 1h 35mn
Bit rate mode : Constant
Bit rate : 1 510 Kbps
Channel(s) : 6 channels
Channel positions : Front: L C R, Side: L R, LFE
Sampling rate : 48.0 KHz
Bit depth : 24 bits
Compression mode : Lossy
Stream size : 1.00 GiB (11%)
Title : DTS 5.1 @ 1536 kbps
Language : English
Default : No
Forced : No

Text #1
ID : 4
Format : UTF-8
Codec ID : S_TEXT/UTF8
Codec ID/Info : UTF-8 Plain Text
Language : Russian
Default : No
Forced : No

Text #2
ID : 5
Format : UTF-8
Codec ID : S_TEXT/UTF8
Codec ID/Info : UTF-8 Plain Text
Language : English
Default : No
Forced : No

Menu
00:00:00.000 : en:00:00:00.000
00:09:10.550 : en:00:09:10.550
00:18:
90ea266ff23c11ee44df550e68b7b13c50a50316Хижина в лесу / The Cabin in the Woods (Дрю Годдард, Ужасы, фантастика, триллер, 2011) [BDRip 1080p, Дубляж, Оригинал, Sub] Хижина в лесу / The Cabin in the Woods (Дрю Годдард, Ужасы, фантастика, триллер, 2011) [BDRip 1080p, Дубляж, Оригинал, Sub] " />

Аплоадер: Админ, дата: 19-09-2012, 16:03, торрент скачан: 359 раз

Понравилась раздача? Посмотрите эти:
  • Хижина в лесу / The Cabin in the Woods (Дрю Годдард, ужасы, триллер, детект ...
  • Анна Каренина / Anna Karenina (Джо Райт, Драма, мелодрама, 2012) [BDRip 108 ...
  • Хижина в лесу / The Cabin in the Woods (Дрю Годдард, Ужасы, фантастика, три ...
  • Хижина в лесу / The Cabin in the Woods (Дрю Годдард, ужасы, триллер, 2011) ...
  • Профессионал / Killer Elite (Гэри МакКендри, Боевик, Триллер, Криминал, 201 ...
  • Время / In Time (Эндрю Никкол, фантастика, триллер, драма, мелодрама, крими ...
  • Дом грёз / Dream House (Джим Шеридан, триллер, драма, детектив, 2011) [BDRi ...
  • Морской бой / Battleship (Питер Берг, Фантастика, боевик, триллер, приключе ...
  • Хижина в лесу / The Cabin in the Woods (Дрю Годдард, ужасы, триллер, 2012) ...
  • Красные огни / Red Lights (Родриго Кортес, Ужасы, триллер, драма, 2012) [BD ...
  • Красные огни / Red Lights (Родриго Кортес, Ужасы, триллер, драма, 2012) [BD ...
  • Супер Майк / Magic Mike (Стивен Содерберг, Драма, комедия, 2012) [BDRip 108 ...
  • Эволюция Борна / The Bourne Legacy (Тони Гилрой, Боевик, триллер, детектив, ...
  • Хижина в лесу / The Cabin in the Woods (Дрю Годдард, Ужасы, триллер, детект ...
  • Хижина в лесу / The Cabin in the Woods (Дрю Годдард, ужасы, триллер, детект ...
  • Хижина в лесу / The Cabin in the Woods (Дрю Годдард, ужасы, фантастика, три ...
  • Хижина в лесу / The Cabin in the Woods (Дрю Годдард, Ужасы, фантастика, три ...
  • Хижина в лесу / The Cabin in the Woods (Дрю Годдард, Ужасы, фантастика, три ...
  • Хижина в лесу / The Cabin in the Woods (Дрю Годдард, Ужасы, фантастика, три ...
  • Хижина в лесу / The Cabin in the Woods (Дрю Годдард, Ужасы, фантастика, три ...
  • Хижина в лесу / The Cabin in the Woods (Дрю Годдард, Ужасы, фантастика, три ...
  • Хижина в лесу / The Cabin in the Woods (Дрю Годдард, Ужасы, Фантастика, Три ...
  • Хижина в лесу / The Cabin in the Woods (Дрю Годдард, Ужасы, Фантастика, Три ...
  • Хижина в лесу / The Cabin in the Woods (Дрю Годдард, Ужасы, фантастика, три ...
  • Хижина в лесу / The Cabin in the Woods (Дрю Годдард, Ужасы, Триллер, 2011) ...
  • Информация
    Посетители, находящиеся в группе Гости, не могут оставлять комментарии к данной публикации.