вход на сайт

Имя пользователя :
Пароль :

Восстановление пароля Регистрация
Притворись моим мужем / You May Not Kiss the Bride (Роб Хедден, Мелодрама, комедия, приключения, 2011) [BDRip 720p, Профессиональный (многоголосый, закадровый) + Оригинал + Sub]
Рейтинг:
(голосов: 1)



[img]{THEME}/images/logopost.png[/img]



Притворись моим мужем / You May Not Kiss the Bride

Год выпуска: 2011
Страна: США
Производство: Hawaii Film Partners, Luminair Film Productions Inc., Showcase Entertainment
Жанр: Мелодрама, комедия, приключения

Режиссёр: Роб Хедден / Rob Hedden
В ролях: Дэйв Эннэйбл, Кэтрин МакФи, Роб Шнайдер, Мена Сувари, Кэти Бейтс, Кен Давитян, Тиа Каррере, Кевин Данн, Винни Джонс, Стивен Тоболовски

Перевод: Профессиональный (многоголосый, закадровый) [Лицензия] +Оригинал
Субтитры: English

Описание: Скромному фотографу Брайану Лайтхаусу не повезло. Совершенно неожиданно он оказался в долгу перед обосновавшимся в США хорватским криминальным авторитетом Вадиком Никитиным. Теперь Брайану нужно жениться на дочери бандита Маше, чтобы та смогла беспрепятственно получить американское гражданство, а потом спокойно развестись. Есть и другое условие: брак — браком, но к невесте горе-жених и пальцем не должен прикасаться. И это самая непростая часть договора, потому что девушка — ослепительная красавица. Дело осложняется и тем, что во время медового месяца на далеком экзотическом острове новоиспеченную жену похищают неизвестные. Ее возвращение становится для Брайана вопросом жизни и смерти…Качество: BDRip 720p
Продолжительность: 01:40:11

Формат: MKV
Видео кодек: MPEG-4 AVC
Аудио кодек: DTS
Видео: 1280x720 (1.77:1), 24.000 fps, MPEG-4 AVC, ~4 729 Kbps, 0.214 Bit/Pixel
Аудио #1: 48 kHz, DTS, 3/2 (L,C,R,l,r) + LFE ch, ~755 kbps[Russian]
Аудио #2: 48 kHz, DTS, 3/2 (L,C,R,l,r) + LFE ch, ~1510 kbps[English]

сэмпл
MediaInfo ▼
General
Unique ID : 198218578738288073335564008406821779961 (0x951F8277481FAD119C4357DF5A6E39F9)
Format : Matroska
Format version : Version 2
File size : 4.89 GiB
Duration : 1h 40mn
Overall bit rate : 6 991 Kbps
Movie name : IRONCLUB
Encoded date : UTC 2012-07-16 16:38:14
Writing application : mkvmerge v4.9.1 (Ich will) сборка от Jul 11 2011 23:53:15
Writing library : libebml v1.2.1 + libmatroska v1.1.1

Video
ID : 1
Format : AVC
Format/Info : Advanced Video Codec
Format profile : [email protected]
Format settings, CABAC : Yes
Format settings, ReFrames : 9 frames
Codec ID : V_MPEG4/ISO/AVC
Duration : 1h 40mn
Bit rate : 4 729 Kbps
Width : 1 280 pixels
Height : 720 pixels
Display aspect ratio : 16:9
Frame rate : 24.000 fps
Color space : YUV
Chroma subsampling : 4:2:0
Bit depth : 8 bits
Scan type : Progressive
Bits/(Pixel*Frame) : 0.214
Stream size : 3.21 GiB (66%)
Title : You.May.Not.Kiss.the.Bride.2011.BluRay.720p.DTS.x264-CHD
Writing library : x264 core 120 r2146 bcd41db
Encoding settings : cabac=1 / ref=9 / deblock=1:-3:-3 / analyse=0x3:0x113 / me=umh / subme=10 / psy=1 / psy_rd=1.10:0.15 / mixed_ref=1 / me_range=32 / chroma_me=1 / trellis=2 / 8x8dct=1 / cqm=0 / deadzone=21,11 / fast_pskip=0 / chroma_qp_offset=-2 / threads=12 / sliced_threads=0 / nr=0 / decimate=1 / interlaced=0 / bluray_compat=0 / constrained_intra=0 / bframes=6 / b_pyramid=2 / b_adapt=2 / b_bias=0 / direct=3 / weightb=1 / open_gop=0 / weightp=2 / keyint=250 / keyint_min=24 / scenecut=40 / intra_refresh=0 / rc_lookahead=60 / rc=2pass / mbtree=0 / bitrate=4729 / ratetol=1.0 / qcomp=0.60 / qpmin=0 / qpmax=69 / qpstep=4 / cplxblur=20.0 / qblur=0.5 / vbv_maxrate=40000 / vbv_bufsize=30000 / nal_hrd=none / ip_ratio=1.40 / pb_ratio=1.30 / aq=1:0.80
Language : English
Default : Yes
Forced : No

Audio #1
ID : 2
Format : DTS
Format/Info : Digital Theater Systems
Codec ID : A_DTS
Duration : 1h 40mn
Bit rate mode : Constant
Bit rate : 755 Kbps
Channel(s) : 6 channels
Channel positions : Front: L C R, Side: L R, LFE
Sampling rate : 48.0 KHz
Bit depth : 24 bits
Compression mode : Lossy
Stream size : 541 MiB (11%)
Title : MVO R5
Language : Russian
Default : Yes
Forced : No

Audio #2
ID : 3
Format : DTS
Format/Info : Digital Theater Systems
Codec ID : A_DTS
Duration : 1h 40mn
Bit rate mode : Constant
Bit rate : 1 510 Kbps
Channel(s) : 6 channels
Channel positions : Front: L C R, Side: L R, LFE
Samp
98dfa4ce85009a595afc1608c2cdb43adcf56f89Притворись моим мужем / You May Not Kiss the Bride (Роб Хедден, Мелодрама, комедия, приключения, 2011) [BDRip 720p, Профессиональный (многоголосый, закадровый) + Оригинал + Sub] Притворись моим мужем / You May Not Kiss the Bride (Роб Хедден, Мелодрама, комедия, приключения, 2011) [BDRip 720p, Профессиональный (многоголосый, закадровый) + Оригинал + Sub] " />

Аплоадер: Админ, дата: 17-09-2012, 22:51, торрент скачан: 359 раз

Понравилась раздача? Посмотрите эти:
  • Погнали! / Getaway (Кортни Соломон, боевик, криминал, 2013) [BDRip 720p, Пр ...
  • Смерть на похоронах / Death at a Funeral (Нил ЛаБут, комедия, 2010) [BDRip ...
  • Суррогат / The Sessions (Бен Луин, драма, 2012) [BDRip 720p, Профессиональн ...
  • Притворись моим мужем / You May Not Kiss the Bride (Роб Хедден, комедия, ме ...
  • Притворись моим мужем / You May Not Kiss the Bride (Роб Хедден, Мелодрама, ...
  • Экстази / Irvine Welshs Ecstasy (Роб Хейдон, Драма, мелодрама, 2011) [BDRip ...
  • Дети шпионов 4D / Spy Kids: All the Time in the World in 4D (Роберт Родриге ...
  • Ларри Краун / Larry Crowne (Том Хэнкс, драма, мелодрама, комедия, 2011) [BD ...
  • Рыжий пес / Red Dog (Крив Стендерс, драма, комедия, семейный, 2011) [BDRip ...
  • Домашняя работа / The Art of Getting By (Гэвин Вьесен, драма, мелодрама, 20 ...
  • Значит, война / This Means War (МакДжи, боевик, мелодрама, комедия, 2012) [ ...
  • Любовь / Love (Уильям Юбэнк, Фантастика, драма, 2011) [BDRip 720p, Професси ...
  • Семь футов / Seven Below (Кевин Каррауэй, Ужасы, триллер, 2012) [BDRip 720p ...
  • Судный день / The Day (Дуглас Арниокоски, Фантастика, триллер, драма, 2011) ...
  • Доля ангелов / The Angels Share (Кен Лоуч, Драма, комедия, 2012) [BDRip 720 ...
  • Дневник слабака 3 / Diary of a Wimpy Kid: Dog Days (Дэвид Бауэрс, комедия, ...
  • Mylene Farmer / Du Temps [2011, Pop, HDTVRip]
  • Притворись моим мужем / You May Not Kiss the Bride (Роб Хедден, мелодрама, ...
  • Притворись моим мужем / You May Not Kiss the Bride (Роб Хедден, Мелодрама, ...
  • Притворись моим мужем / You May Not Kiss the Bride (Роб Хедден, мелодрама, ...
  • Информация
    Посетители, находящиеся в группе Гости, не могут оставлять комментарии к данной публикации.