вход на сайт

Имя пользователя :
Пароль :

Восстановление пароля Регистрация
Код доступа «София» / Sofia / Assassins Bullet (Айзек Флорентайн, Боевик, триллер, драма, 2012) [BDRip 720p, Профессиональный (многоголосый, закадровый), Оригинал, Sub]
Рейтинг:
(голосов: 1)



[img]{THEME}/images/logopost.png[/img]



Код доступа «София» / Sofia / Assassins Bullet
«Правду знает только один»


Год выпуска: 2012
Страна: США
Производство: Sofia Productions, Mutressa Movies
Жанр: Боевик, триллер, драма

Режиссёр: Айзек Флорентайн
В ролях: Кристиан Слэйтер, Дональд Сазерленд, Элика Портной, Тимоти Сполл, Ивайло Герасков, Иван Коцев, Tanya Mickov, Васил Михайлов, Башар Рахаль

Перевод: Профессиональный (многоголосый, закадровый), Оригинал
Субтитры: Russian, English

Описание: В болгарской столице Софии происходят странные и зловещие события. Криминальные группировки города стали мишенью некоего загадочного убийцы. Охотник невероятно ловок и тщательно экипирован, он беспощаден и неуловим. Что это — месть? Разборки конкурентов? Банальное ограбление? Найти разгадку берется детектив Роберт, которому предстоит опросить множество людей, посетить огромное количество мест, попасть в безвыходную ситуацию и оказаться на волоске от смерти, но все же раскрыть тайну Софии.

Релиз от:

Качество: BDRip 720p [EbP]
Продолжительность: 01:31:27 час.


Формат: MKV
Видео кодек: x264
Аудио кодек: AC3, DTS
Видео: 1280x720 (16:9), 23.976 fps, x264 ~4 880 kbps avg, 0.221 bit/pixel
Аудио#1: 48 kHz, AC3 Dolby Digital, 3/2 (L,C,R,l,r) + LFE ch, ~384 kbps( RUS)
Аудио#2: 48 kHz, DTS, 3/2 (L,C,R,l,r) + LFE ch, ~1536.00 kbps avg( ENG)

Дата премьеры (мир): 18 апреля 2012

MediaInfo ▼General
Complete name : Kod.dostupa.Sofija.2012.P.BDRip.720p.IRONCLUB.mkv
Format : Matroska
Format version : Version 2
File size : 4.33 GiB
Duration : 1h 31mn
Overall bit rate : 6 772 Kbps
Movie name : IRONCLUB
Encoded date : UTC 2012-09-15 13:07:11
Writing application : mkvmerge v4.9.1 (Ich will) сборка от Jul 11 2011 23:53:15
Writing library : libebml v1.2.1 + libmatroska v1.1.1

Video
ID : 1
Format : AVC
Format/Info : Advanced Video Codec
Format profile : [email protected]
Format settings, CABAC : Yes
Format settings, ReFrames : 9 frames
Codec ID : V_MPEG4/ISO/AVC
Duration : 1h 31mn
Bit rate : 4 880 Kbps
Width : 1 280 pixels
Height : 720 pixels
Display aspect ratio : 16:9
Frame rate : 23.976 fps
Color space : YUV
Chroma subsampling : 4:2:0
Bit depth : 8 bits
Scan type : Progressive
Bits/(Pixel*Frame) : 0.221
Stream size : 3.03 GiB (70%)
Title : Sofia.2012.720p.BluRay.DTS.x264-EbP
Writing library : x264 core 125 r2208 d9d2288
Encoding settings : cabac=1 / ref=9 / deblock=1:-3:-3 / analyse=0x3:0x113 / me=tesa / subme=11 / psy=1 / psy_rd=1.05:0.00 / mixed_ref=1 / me_range=16 / chroma_me=1 / trellis=2 / 8x8dct=1 / cqm=0 / deadzone=21,11 / fast_pskip=0 / chroma_qp_offset=-2 / threads=12 / lookahead_threads=2 / sliced_threads=0 / nr=0 / decimate=0 / interlaced=0 / bluray_compat=0 / constrained_intra=0 / bframes=9 / b_pyramid=2 / b_adapt=2 / b_bias=0 / direct=3 / weightb=1 / open_gop=0 / weightp=2 / keyint=250 / keyint_min=23 / scenecut=40 / intra_refresh=0 / rc=2pass / mbtree=0 / bitrate=4880 / ratetol=1.0 / qcomp=0.60 / qpmin=0 / qpmax=69 / qpstep=4 / cplxblur=20.0 / qblur=0.5 / ip_ratio=1.40 / pb_ratio=1.30 / aq=1:0.60
Language : English
Default : Yes
Forced : Yes

Audio #1
ID : 2
Format : AC-3
Format/Info : Audio Coding 3
Mode extension : CM (complete main)
Format settings, Endianness : Big
Codec ID : A_AC3
Duration : 1h 31mn
Bit rate mode : Constant
Bit rate : 384 Kbps
Channel(s) : 6 channels
Channel positions : Front: L C R, Side: L R, LFE
Sampling rate : 48.0 KHz
Bit depth : 16 bits
Compression mode : Lossy
Stream size : 251 MiB (6%)
Title : DD 5.1 @ 384 kbps - MVO, R5
Language : Russian
Default : Yes
Forced : Yes

Audio #2
ID : 3
Format : DTS
Format/Info : Digital Theater Systems
Codec ID : A_DTS
Duration : 1h 31mn
Bit rate mode : Constant
Bit rate : 1 510 Kbps
Channel(s) : 6 channels
Channel positions : Front: L C R, Side: L R, LFE
Sampling rate : 48.0 KHz
Bit depth : 24 bits
Compression mode : Lossy
Stream size : 988 MiB (22%)
Title : DTS 5.1 @ 1536 Kbps
Language : English
Default : No
Forced
f9ec2359ef0577a75b9545df5689f572422ffc8cКод доступа «София» / Sofia / Assassins Bullet (Айзек Флорентайн, Боевик, триллер, драма, 2012) [BDRip 720p, Профессиональный (многоголосый, закадровый), Оригинал, Sub] Код доступа «София» / Sofia / Assassins Bullet (Айзек Флорентайн, Боевик, триллер, драма, 2012) [BDRip 720p, Профессиональный (многоголосый, закадровый), Оригинал, Sub] " />

Аплоадер: Админ, дата: 15-09-2012, 21:34, торрент скачан: 359 раз

Понравилась раздача? Посмотрите эти:
  • Погнали! / Getaway (Кортни Соломон, боевик, криминал, 2013) [BDRip 720p, Пр ...
  • Гость / The Caller (Мэттью Паркхилл, триллер, детектив, 2011) [BDRip 720p, ...
  • Жизнь Пи / Life Of Pi (Энг Ли, Драма, приключения, 2012) [BDRip 720p, Профе ...
  • Суррогат / The Sessions (Бен Луин, драма, 2012) [BDRip 720p, Профессиональн ...
  • Толстяк на ринге / Here Comes the Boom (Фрэнк Корачи, Боевик, комедия, 201 ...
  • Джекпот / Arme Riddere (Магнус Мартенс, Боевик, комедия, криминал, 2011) [B ...
  • Черный дрозд / Deadfall (Штефан Руцовицки, Триллер, драма, криминал, 2012) ...
  • Убить по расписанию / Ticking Clock (Эрни Барбараш, фантастика, боевик, три ...
  • Код доступа «София» / Sofia / Assassins Bullet (Айзек Флорентайн, Боевик, т ...
  • Код доступа «София» / Sofia / Assassins Bullet (Айзек Флорентайн, Боевик, т ...
  • Экстази / Irvine Welshs Ecstasy (Роб Хейдон, Драма, мелодрама, 2011) [BDRip ...
  • Код доступа «София» / Sofia / Assassins Bullet (Айзек Флорентайн, Боевик, т ...
  • Код Доступа «Кейптаун» / Safe House (Дэниэл Эспиноза, боевик, триллер, крим ...
  • Закон доблести / Act of Valor (Майк МакКой, Скотт Во, боевик, триллер, прик ...
  • «Весёлые» каникулы / Get the Gringo (Адриан Грюнберг, Боевик, комедия, 2012 ...
  • Ворон / The Raven (Джеймс МакТиг, Триллер, детектив, 2012) [BDRip 720p, Дуб ...
  • Пираньи 3DD / Piranha 3DD (Джон Гулажер, ужасы, триллер, комедия, 2012) [BD ...
  • Семь футов / Seven Below (Кевин Каррауэй, Ужасы, триллер, 2012) [BDRip 720p ...
  • Красные огни / Red Lights (Родриго Кортес, Ужасы, триллер, драма, 2012) [BD ...
  • Код доступа «София» / Sofia / Assassins Bullet (Айзек Флорентайн, Боевик, т ...
  • Медальон / Stolen (Саймон Уэст, Боевик, триллер, 2012) [BDRip 720p, Дубляж, ...
  • Судный день / The Day (Дуглас Арниокоски, Фантастика, триллер, драма, 2011) ...
  • Патруль / End of Watch (Дэвид Эйр, Триллер, драма, криминал, 2012) [BDRip 7 ...
  • Эволюция Борна / The Bourne Legacy (Тони Гилрой, Боевик, триллер, детектив, ...
  • Код доступа «София» / Sofia (Айзек Флорентайн, боевик, триллер, драма, 2012 ...
  • Информация
    Посетители, находящиеся в группе Гости, не могут оставлять комментарии к данной публикации.