вход на сайт

Имя пользователя :
Пароль :

Восстановление пароля Регистрация
Чего ждать, когда ждешь ребенка / What to Expect When Youre Expecting (Кирк Джонс, Драма, мелодрама, комедия, 2012) [BDRip [720p], Дублированный + Оригинал + Sub]
Рейтинг:
(голосов: 1)



[img]{THEME}/images/logopost.png[/img]



• Чего ждать, когда ждешь ребенка / What to Expect When Youre Expecting •
♥ Год выпуска: 2012
♥ Страна: США
♥ Производство: Phoenix Pictures, Alcon Entertainment, Lionsgate
♥ Жанр: Драма, мелодрама, комедия

♥ Режиссёр: Кирк Джонс
♥ В ролях: Кэмерон Диаз, Дженнифер Лопез, Элизабет Бэнкс, Чейс Кроуфорд, Бруклин Декер, Анна Кендрик, Мэттью Моррисон, Деннис Куэйд, Венди МакЛендон-Кови, Родриго Сантор

♥ Перевод: Дублированный + Оригинал
♥ Субтитры: Вшитые отключаемые (Русский, Англиский Full, SDH)

♥ Описание: Фильм расскажет историю пяти пар, которым предстоят все радости процесса ожидания и рождения ребенка. Главная героиня 42-летняя адептка системы похудания по Джиллиан Майклз, которая ведет собственное шоу по сбросу веса и фитнесу. По сюжету героиня выясняет, что, несмотря на возраст, она ждет ребенка.





♥ Качество: BDRip [720p]
♥ Продолжительность: 01:50:19

♥ Формат: MKV
♥ Видео кодек: AVC / H.264
♥ Аудио кодек: DTS
♥ Видео: 1280 x 534 (2.397) at 23.976 fps, 4 800 Kbps, 0.293 Bits/Pixel
♥ Аудио#1: DTS 755 Кбит/сек (6ch), 48,0 КГц, 24 bits [Русский, дубляж]
♥ Аудио#2: DTS 1510 Кбит/сек (6ch), 48,0 КГц, 24 bits [Английский]

"MI:" ▼
D:Релизы_[Soft95]Chego.jdat.kogda.jdesh.rebenka.2012.D.BDRip.720p.kaztorka.org.mkv
General
Unique ID : 187716066820601966728199417561581791131 (0x8D38CCA658969BE88058C4C3E52EA79B)
Complete name : D:Релизы_[Soft95]Chego.jdat.kogda.jdesh.rebenka.2012.D.BDRip.720p.kaztorka.org.mkv
Format : Matroska
Format version : Version 2
File size : 5.42 GiB
Duration : 1h 50mn
Overall bit rate : 7 040 Kbps
Movie name : -=NNM-CLUB.RU=-
Encoded date : UTC 2012-09-13 06:54:42
Writing application : mkvmerge v2.9.9 (Tutu) built on Nov 25 2009 21:13:32
Writing library : libebml v0.7.9 + libmatroska v0.8.1
Video #1
ID : 1
Format : AVC
Format/Info : Advanced Video Codec
Format profile : [email protected]
Format settings, CABAC : Yes
Format settings, ReFrames : 12 frames
Codec ID : V_MPEG4/ISO/AVC
Duration : 1h 50mn
Bit rate : 4 800 Kbps
Width : 1 280 pixels
Height : 534 pixels
Display aspect ratio : 2.40:1
Frame rate : 23.976 fps
Color space : YUV
Chroma subsampling : 4:2:0
Bit depth : 8 bits
Scan type : Progressive
Bits/(Pixel*Frame) : 0.293
Stream size : 3.57 GiB (66%)
Stream size : 3.57 GiB (66%)
Title : Chego.jdat.kogda.jdesh.rebenka.2012.D.BDRip.720p.NNM-CLUB.
Writing library : x264 core 125 r2208 d9d2288
Encoding settings : cabac=1 / ref=12 / deblock=1:-3:-3 / analyse=0x3:0x113 / me=umh / subme=10 / psy=1 / psy_rd=1.10:0.00 / mixed_ref=1 / me_range=32 / chroma_me=1 / trellis=2 / 8x8dct=1 / cqm=0 / deadzone=21,11 / fast_pskip=0 / chroma_qp_offset=-2 / threads=18 / lookahead_threads=3 / sliced_threads=0 / nr=0 / decimate=1 / interlaced=0 / bluray_compat=0 / constrained_intra=0 / bframes=8 / b_pyramid=2 / b_adapt=2 / b_bias=0 / direct=3 / weightb=1 / open_gop=0 / weightp=2 / keyint=240 / keyint_min=24 / scenecut=40 / intra_refresh=0 / rc_lookahead=120 / rc=2pass / mbtree=1 / bitrate=4800 / ratetol=1.0 / qcomp=0.70 / qpmin=0 / qpmax=69 / qpstep=4 / cplxblur=20.0 / qblur=0.5 / ip_ratio=1.20 / aq=1:0.80
Language : English
Default : Yes
Forced : No
Audio #2
ID : 2
Format : DTS
Format/Info : Digital Theater Systems
Codec ID : A_DTS
Duration : 1h 50mn
Bit rate mode : Constant
Bit rate : 755 Kbps
Channel(s) : 6 channels
Channel positions : Front: L C R, Side: L R, LFE
Sampling rate : 48.0 KHz
Bit depth : 24 bits
Compression mode : Lossy
Stream size : 595 MiB (11%)
Title : DTS.755.Kbps.Russian
Default : Yes
Forced : No
Audio #3
ID : 3
Format : DTS
Format/Info : Digital Theater Systems
Codec ID : A_DTS
Duration : 1h 50mn
Bit rate mode : Constant
Bit rate : 1 510 Kbps
Channel(s) : 6 channels
Channel positions : Front: L C R, Side: L R, LFE
Sampling rate : 48.0 KHz
Bit depth : 24 bits
Compression mode : Lossy
Stream size : 1.16 GiB (21%)
Title : DTS.1510.Kbps.English
Language : English
Default : N
3dca5560ce0e9ac568826b5826875dee8fbb89f2Чего ждать, когда ждешь ребенка / What to Expect When Youre Expecting (Кирк Джонс, Драма, мелодрама, комедия, 2012) [BDRip [720p], Дублированный + Оригинал + Sub] Чего ждать, когда ждешь ребенка / What to Expect When Youre Expecting (Кирк Джонс, Драма, мелодрама, комедия, 2012) [BDRip [720p], Дублированный + Оригинал + Sub] " />

Аплоадер: Админ, дата: 14-09-2012, 15:44, торрент скачан: 359 раз

Понравилась раздача? Посмотрите эти:
  • Суррогат / The Sessions (Бен Луин, драма, 2012) [BDRip 720p, Профессиональн ...
  • Весенние надежды / Hope Springs (Дэвид Фрэнкел, Драма, мелодрама, комедия, ...
  • Анна Каренина / Anna Karenina (Джо Райт, Драма, мелодрама, 2012) [BDRip 720 ...
  • Чего ждать, когда ждешь ребенка / What to Expect When Youre Expecting (Кирк ...
  • Чего ждать, когда ждешь ребенка / What to Expect When Youre Expecting (Кирк ...
  • Чего ждать, когда ждешь ребенка / What to Expect When Youre Expecting (Кирк ...
  • Чего ждать, когда ждешь ребенка / What to Expect When Youre Expecting (Кирк ...
  • Чего ждать, когда ждешь ребенка / What to Expect When Youre Expecting (Кирк ...
  • Чего ждать, когда ждешь ребенка / What to Expect When Youre Expecting (Кирк ...
  • Секс по дружбе / Friends with Benefits (Уилл Глак, драма, мелодрама, комеди ...
  • Значит, война / This Means War (МакДжи, боевик, мелодрама, комедия, 2012) [ ...
  • Приемыш / Foster (Джонатан Ньюман, Драма, Комедия, Семейный, 2011) [BDRip 7 ...
  • Проект X: Дорвались / Project X (Нима Нуризаде, комедия, 2012) [BDRip 720p, ...
  • «Весёлые» каникулы / Get the Gringo (Адриан Грюнберг, Боевик, комедия, 2012 ...
  • Ворон / The Raven (Джеймс МакТиг, Триллер, детектив, 2012) [BDRip 720p, Дуб ...
  • Чего ждать, когда ждешь ребенка / What to Expect When Youre Expecting (Кирк ...
  • Красные огни / Red Lights (Родриго Кортес, Ужасы, триллер, драма, 2012) [BD ...
  • Рок на века / Rock of Ages (Адам Шенкман, Мюзикл, драма, мелодрама, комедия ...
  • Странная жизнь Тимоти Грина / The Odd Life of Timothy Green (Питер Хеджес, ...
  • Помогите Стать Отцом / Not Suitable For Children (Питер Темплмен, Мелодрама ...
  • Информация
    Посетители, находящиеся в группе Гости, не могут оставлять комментарии к данной публикации.