вход на сайт

Имя пользователя :
Пароль :

Восстановление пароля Регистрация
Чего ждать, когда ждешь ребенка / What to Expect When Youre Expecting (Кирк Джонс, Драма, мелодрама, комедия, 2012) [BD-Remux 1080p, Дубляж, Оригинал, Sub]
Рейтинг:
(голосов: 1)



[img]{THEME}/images/logopost.png[/img]



Чего ждать, когда ждешь ребенка / What to Expect When Youre Expecting
«Зачато по бестселлеру»


Год выпуска: 2012
Страна: США
Производство: Alcon Entertainment, Phoenix Pictures
Жанр: Драма, мелодрама, комедия

Режиссёр: Кирк Джонс
В ролях: Кэмерон Диаз, Дженнифер Лопез, Элизабет Бэнкс, Чейс Кроуфорд, Бруклин Декер, Анна Кендрик, Мэттью Моррисон, Деннис Куэйд, Венди МакЛендон-Кови, Родриго Санторо

Перевод: Дубляж, Оригинал
Субтитры: Russian, English

Описание: Фильм расскажет историю пяти пар, которым предстоят все радости процесса ожидания и рождения ребенка. Главная героиня 42-летняя адептка системы похудания по Джиллиан Майклз, которая ведет собственное шоу по сбросу веса и фитнесу. По сюжету героиня выясняет, что, несмотря на возраст, она ждет ребенка.
Качество: BD-Remux 1080p => [What to Expect When Youre Expecting 2012 1080p AVC DTS-HD MA 7.1-HDChina]
Продолжительность: 01:49:50 час.


Формат: MKV
Видео кодек: x264
Аудио кодек: DTS, DTS-HD Master Audio
Видео: 1920x1080 (16:9), 23.976 fps, x264 ~19,3 mb/s, 0.389 bit/pixel
Аудио#1: 48 kHz/24-bit, DTS, 3/2 (L,C,R,l,r) + LFE ch, ~768.00 kbps avg- (Дубляж)
Аудио#2: DTS-HD Master Audio 4534 kbps 7.1 / 48 kHz / 4534 kbps / 24-bit (DTS Core: 5.1 / 48 kHz / 1509 kbps / 24-bit) -(Оригинал)

Дата премьеры (мир): 17 мая 2012
Дата премьеры (РФ): 17 мая 2012, «West»

MediaInfo ▼Общее
Уникальный идентификатор : 254580288651182279869721000405587872852 (0xBF86614F4F0B8ED1AF7B9C6BC6CE4C54)
Полное имя : N:/DATAChego.jdat.kogda.jdesh.rebenka.2012.MPEG-4-AVC.BluRay-Remux(1080p).mkv
Формат : Matroska
Версия формата : Version 2
Размер файла : 17,1 Гбайт
Продолжительность : 1 ч. 50 м.
Режим общего битрейта : Переменный
Общий поток : 22,1 Мбит/сек
Название фильма : --SCHUMAHER--
Дата кодирования : UTC 2012-09-12 17:17:56
Программа кодирования : mkvmerge v5.8.0 (No Sleep / Pillow) built on Sep 2 2012 15:37:04
Библиотека кодирования : libebml v1.2.3 + libmatroska v1.3.0

Видео
Идентификатор : 1
Формат : AVC
Формат/Информация : Advanced Video Codec
Профиль формата : [email protected]
Параметр CABAC формата : Да
Параметр ReFrames формата : 4 кадра
Идентификатор кодека : V_MPEG4/ISO/AVC
Продолжительность : 1 ч. 50 м.
Вид битрейта : Переменный
Битрейт : 19,3 Мбит/сек
Максимальный битрейт : 35,0 Мбит/сек
Ширина : 1920 пикселей
Высота : 1080 пикселей
Соотношение сторон : 16:9
Частота кадров : 23,976 кадра/сек
Стандарт вещания : NTSC
Цветовое пространство : YUV
Субдискретизация насыщенности : 4:2:0
Битовая глубина : 8 бит
Тип развёртки : Прогрессивная
Бит/(Пиксели*Кадры) : 0.389
Размер потока : 14,9 Гбайт (87%)
Язык : English
Default : Да
Forced : Да
Основные цвета : BT.709-5, BT.1361, IEC 61966-2-4, SMPTE RP177
Характеристики трансфера : BT.709-5, BT.1361
Коэффициенты матрицы : BT.709-5, BT.1361, IEC 61966-2-4 709, SMPTE RP177

Аудио #1
Идентификатор : 2
Формат : DTS
Формат/Информация : Digital Theater Systems
Идентификатор кодека : A_DTS
Продолжительность : 1 ч. 50 м.
Вид битрейта : Постоянный
Битрейт : 755 Кбит/сек
Каналы : 6 каналов
Расположение каналов : Front: L C R, Side: L R, LFE
Частота : 48,0 КГц
Битовая глубина : 24 бит
Метод сжатия : С потерями
Размер потока : 595 Мбайт (3%)
Язык : Russian
Default : Да
Forced : Да

Аудио #2
Идентификатор : 3
Формат : DTS
Формат/Информация : Digital Theater Systems
Профиль формата : MA / Core
Идентификатор кодека : A_DTS
Продолжительность : 1 ч. 50 м.
Вид битрейта : Переменный
Битрейт : 1606 Кбит/сек / 1510 Кбит/сек
Каналы : 8 каналов / 6 каналов
Расположение каналов : Front: L C R, Side: L R, Back: L R, LFE / Front: L C R, Side: L R, LFE
Частота : 48,0 КГц
Битовая глубина : 24 бит
Метод сжатия : Без потерь / Lossy
Язык : English
Default : Нет
Forced : Нет

Текст #1
Идентификатор : 4
Формат : UTF-8
Идентификатор кодека : S_TEXT/UTF8
Идентификатор кодека/Информаци
9fb172c60c17b25f745f8203b2e3268391b6c6afЧего ждать, когда ждешь ребенка / What to Expect When Youre Expecting (Кирк Джонс, Драма, мелодрама, комедия, 2012) [BD-Remux 1080p, Дубляж, Оригинал, Sub] Чего ждать, когда ждешь ребенка / What to Expect When Youre Expecting (Кирк Джонс, Драма, мелодрама, комедия, 2012) [BD-Remux 1080p, Дубляж, Оригинал, Sub] " />

Аплоадер: Админ, дата: 13-09-2012, 01:25, торрент скачан: 359 раз

Понравилась раздача? Посмотрите эти:
  • 21 и больше / 21 & Over (Джон Лукас, Скотт Мур, Комедия, 2013) [BD-Remux 10 ...
  • Поймай толстуху, если сможешь [Театральная версия] / Identity Thief [Theatr ...
  • G.I. Joe: Бросок кобры 2 [Театральная версия] / G.I. Joe: Retaliation [Thea ...
  • Падение Олимпа / Olympus Has Fallen (Антуан Фукуа, Боевик, триллер, 2013) [ ...
  • Эскадрилья "Лафайет" / Flyboys (Тони Билл, Боевик, драма, мелодрама, приклю ...
  • Чего ждать, когда ждешь ребенка / What to Expect When Youre Expecting (Кирк ...
  • Чего ждать, когда ждешь ребенка / What to Expect When Youre Expecting (Кирк ...
  • Чего ждать, когда ждешь ребенка / What to Expect When Youre Expecting (Кирк ...
  • Чего ждать, когда ждешь ребенка / What to Expect When Youre Expecting (Кирк ...
  • Чего ждать, когда ждешь ребенка / What to Expect When Youre Expecting (Кирк ...
  • Чего ждать, когда ждешь ребенка / What to Expect When Youre Expecting (Кирк ...
  • Транзит / Transit (Антонио Негрет, боевик, триллер, драма, криминал, 2011) ...
  • Защитник / Safe (Боаз Якин, Боевик, криминал, 2012) [BD-Remux 1080p [USA Tr ...
  • Диктатор / The Dictator (Ларри Чарльз, Комедия, 2012) [BD-Remux 1080p, Дубл ...
  • Счастливчик / The Lucky One (Скотт Хикс, Драма, мелодрама, 2012) [BD-Remux ...
  • Сид, инструкция по выживанию / Surviving Sid (Гален Т. Чу, Карен Дишер, мул ...
  • Мрачные тени / Dark Shadows (Тим Бёртон, Фэнтези, мелодрама, комедия, 2012 ...
  • Чего ждать, когда ждешь ребенка / What to Expect When Youre Expecting (Кирк ...
  • В ритме сердца / Sur le rythme (Шарль Оливье-Мишо, Мелодрама, 2011) [BD-Rem ...
  • Средь бела дня / The Cold Light of Day (Мабрук Эль Мекри, Боевик, триллер, ...
  • Красные огни / Red Lights (Родриго Кортес, Ужасы, триллер, драма, 2012) [BD ...
  • Белоснежка и охотник [Расширенная версия] / Snow White and the Huntsman [U ...
  • Ищу друга на конец света / Seeking a Friend for the End of the World (Лорен ...
  • Супер Майк / Magic Mike (Стивен Содерберг, Драма, комедия, 2012) [BD-Remux ...
  • Папа-Досвидос [Театральная версия] / Thats My Boy [Theatrical Cut] (Шон Анд ...
  • Информация
    Посетители, находящиеся в группе Гости, не могут оставлять комментарии к данной публикации.