вход на сайт

Имя пользователя :
Пароль :

Восстановление пароля Регистрация
Мрачные тени / Dark Shadows (Тим Бёртон, Фэнтези, мелодрама, комедия, 2012) [Blu-Ray Remux 1080p, полное дублирование (рус., укр.), оригинал, субтитры]
Рейтинг:
(голосов: 1)



[img]{THEME}/images/logopost.png[/img]



Мрачные тени / Dark Shadows
«в семье не без вампира»

Год выпуска: 2012
Страна: США
Производство: Warner Bros. Pictures
Жанр: Фэнтези, мелодрама, комедия

Режиссёр: Тим Бёртон
В ролях: Джонни Депп, Мишель Пфайффер, Хелена Бонем Картер, Ева Грин, Джеки Эрл Хейли, Джонни Ли Миллер, Белла Хиткот, Хлоя Грейс Морец, Гулливер МакГрат, Кристофер Ли

Перевод:полное дублирование (рус., укр.), оригинал
Субтитры: Русские, английские

Описание:Владелец поместья Коллинвуд, Барнабас Коллинз, богат, властен и слывет неисправимым Казановой, пока не совершает роковую ошибку, разбив сердце Анжелики Бошар. Будучи ведьмой в буквальном смысле этого слова, она обрекает его на судьбу, худшую, чем сама смерть — обращает его в вампира и хоронит заживо. Два века спустя Барнабаса случайно освобождают из склепа, и тот оказывается в очень изменившемся мире 1972 года. Он возвращается в Коллинвуд и находит в руинах это некогда величественное здание. Жалкие потомки его семьи сохранились лишь немногим лучше родового гнезда, и у каждого из них есть свои «скелеты в шкафу».Качество: Blu-Ray Remux 1080p
Продолжительность: 01:53:04

Формат: MKV
Видео кодек: AVC
Аудио кодек: DTS-HD Master Audio, АС3
Видео: 1920x1080 (16:9), 22,5 Мбит/сек, 23,976 кадра/сек, 0.453 bit/pix
Аудио:
Русский (AC3, 6 ch, 448 Кбит/с)
украинский (AC3, 6 ch, 448 Кбит/с)
английский (DTS-HD Master Audio, 2038 Кбит/сек, 5.1, 48 kHz, 16-bit (DTS Core: 5.1 / 48 kHz / 1510 Кбит/сек / 16-bit))

MediaInfo ▼Text
Общее
Уникальный идентификатор : 178571572520185591333185746897850221946 (0x8657A245852C8576A38E8E9511F2457A)
Полное имя : Z:BLU-RAY REMUXMrachnye.teni.2012.MPEG-4-AVC.BluRay-Remux(1080p).mkv
Формат : Matroska
Версия формата : Version 2
Размер файла : 21,4 Гбайт
Продолжительность : 1 ч. 58 м.
Режим общего битрейта : Переменный
Общий поток : 26,0 Мбит/сек
Название фильма : --SCHUMAHER--
Дата кодирования : UTC 2012-09-04 07:01:59
Программа кодирования : mkvmerge v5.8.0 (No Sleep / Pillow) built on Sep 2 2012 15:37:04
Библиотека кодирования : libebml v1.2.3 + libmatroska v1.3.0

Видео
Идентификатор : 1
Формат : AVC
Формат/Информация : Advanced Video Codec
Профиль формата : [email protected]
Параметр CABAC формата : Да
Параметр ReFrames формата : 2 кадра
Идентификатор кодека : V_MPEG4/ISO/AVC
Продолжительность : 1 ч. 58 м.
Вид битрейта : Переменный
Битрейт : 22,5 Мбит/сек
Ширина : 1920 пикселей
Высота : 1080 пикселей
Соотношение сторон : 16:9
Частота кадров : 23,976 кадра/сек
Цветовое пространство : YUV
Субдискретизация насыщенности : 4:2:0
Битовая глубина : 8 бит
Тип развёртки : Прогрессивная
Бит/(Пиксели*Кадры) : 0.453
Размер потока : 18,6 Гбайт (87%)
Язык : English
Default : Да
Forced : Да

Аудио #1
Идентификатор : 2
Формат : AC-3
Формат/Информация : Audio Coding 3
Расширение режима : CM (complete main)
Параметр Endianness формата : Big
Идентификатор кодека : A_AC3
Продолжительность : 1 ч. 58 м.
Вид битрейта : Постоянный
Битрейт : 448 Кбит/сек
Каналы : 6 каналов
Расположение каналов : Front: L C R, Side: L R, LFE
Частота : 48,0 КГц
Битовая глубина : 16 бит
Метод сжатия : С потерями
Размер потока : 378 Мбайт (2%)
Язык : Russian
Default : Да
Forced : Да

Аудио #2
Идентификатор : 3
Формат : AC-3
Формат/Информация : Audio Coding 3
Расширение режима : CM (complete main)
Параметр Endianness формата : Big
Идентификатор кодека : A_AC3
Продолжительность : 1 ч. 58 м.
Вид битрейта : Постоянный
Битрейт : 448 Кбит/сек
Каналы : 6 каналов
Расположение каналов : Front: L C R, Side: L R, LFE
Частота : 48,0 КГц
 
f6ee74ade7eb7821891c9150d62aac82e3218030 Мрачные тени / Dark Shadows (Тим Бёртон, Фэнтези, мелодрама, комедия, 2012) [Blu-Ray Remux 1080p, полное дублирование (рус., укр.), оригинал, субтитры] Мрачные тени / Dark Shadows (Тим Бёртон, Фэнтези, мелодрама, комедия, 2012) [Blu-Ray Remux 1080p, полное дублирование (рус., укр.), оригинал, субтитры] " />

Аплоадер: Админ, дата: 4-09-2012, 15:00, торрент скачан: 359 раз

Понравилась раздача? Посмотрите эти:
  • Мрачные тени / Dark Shadows (Тим Бёртон, фэнтези, мелодрама, комедия, 2012) ...
  • Копы в юбках / The Heat [UNRATED] (Пол Фиг, комедия, криминал, боевик, дете ...
  • Мрачные тени / Dark Shadows (Тим Бёртон, фэнтези, мелодрама, комедия, 2012) ...
  • Мрачные тени / Dark Shadows (Тим Бёртон, Фэнтези, мелодрама, комедия, 2012) ...
  • Мрачные тени / Dark Shadows (Тим Бёртон, фэнтези, мелодрама, комедия, 2012) ...
  • Мрачные тени / Dark Shadows (Тим Бёртон, Фэнтези, мелодрама, комедия, 2012) ...
  • Мрачные тени / Dark Shadows (Тим Бёртон, фэнтези, мелодрама, комедия, 2012) ...
  • Другой мир: Пробуждение / Underworld: Awakening (Манс Марлинд, Бьёрн Стейн, ...
  • Диктатор / The Dictator (Ларри Чарльз, Комедия, 2012) [BD-Remux 1080p, Дубл ...
  • Счастливчик / The Lucky One (Скотт Хикс, Драма, мелодрама, 2012) [BD-Remux ...
  • Мрачные тени / Dark Shadows (Тим Бёртон, Фэнтези, мелодрама, комедия, 2012) ...
  • Мрачные тени / Dark Shadows (Тим Бёртон, Фэнтези, мелодрама, комедия, 2012) ...
  • Мрачные тени / Dark Shadows (Тим Бёртон, Фэнтези, мелодрама, комедия, 2012) ...
  • Ищу друга на конец света / Seeking a Friend for the End of the World (Лорен ...
  • Папа-Досвидос [Театральная версия] / Thats My Boy [Theatrical Cut] (Шон Анд ...
  • Мрачные тени / Dark Shadows (Тим Бёртон, Фэнтези, мелодрама, комедия, 2012) ...
  • Мрачные тени / Dark Shadows (Тим Бёртон, Фэнтези, мелодрама, комедия, 2012) ...
  • Мрачные тени / Dark Shadows (Тим Бёртон, Фэнтези, мелодрама, комедия, 2012) ...
  • Мрачные тени / Dark Shadows (Тим Бёртон, Фэнтези, мелодрама, комедия, 2012) ...
  • Мрачные тени / Dark Shadows (Тим Бёртон, Фэнтези, Мелодрама, Комедия, 2012) ...
  • Информация
    Посетители, находящиеся в группе Гости, не могут оставлять комментарии к данной публикации.