вход на сайт

Имя пользователя :
Пароль :

Восстановление пароля Регистрация
Павшая империя / Hirokin (Алехо Мо-Сан, фантастика, боевик, драма, приключения, 2011) [BDRip 720p, Профессиональный (многоголосый, закадровый), Оригинал, Sub [Eng, Rus]]
Рейтинг:
(голосов: 1)



[img]{THEME}/images/logopost.png[/img]





¤ Год выпуска: 2011
¤ Страна:США
¤ Производство: Hirokin Productions
¤ Жанр: фантастика, боевик, драма, приключения

¤ Режиссёр: Алехо Мо-Сан / Alejo Mo-Sun
¤ В ролях: Уэс Бентли, Джессика Зор, Энгус МакФадьен, Лаура Рэмси, Джулиан Сэндс, Макс Мартини, Родни Чарльз, Мерседес Мэннинг, Джастин Шилтон, Дэз Кроуфорд

¤ Перевод: Профессиональный (многоголосый, закадровый), +Оригинал [лицензия]
¤ Озвучка: не известно
¤ Субтитры: Sub [Eng, Rus] (отключаемые)

« Описание »
Главный герой вынужден принять свою судьбу и решить, мстить за убийство семьи или бороться за свободу своего народа.



« Тех.Данные »
¤ Качество: BDRip 720p
¤ Продолжительность: ~01:45:35 часа

¤ Формат: MKV
¤ Видео кодек: AVC [email protected]
¤ Аудио кодек: Audio Coding 3, Digital Theater Systems
¤ Видео: 1280x720 (16:9) 23.976 fps, AVC ~4423 kbps avg, 0.20 bit/pixel
¤ Аудио: 48 kHz, Audio Coding 3, 3/2 (L,C,R) + LFE ch, ~384 kbpsRus
¤ Аудио: 48 kHz, Digital Theater Systems, 2 (L,R) ch, ~1510 kbpsEng

MediaInfo ▼TextОбщее

Полное имя : D:ТоррентыPavshaja.imperija.2011.BDRip.mkv
Формат : Matroska
Размер файла : 4,66 Гбайт
Продолжительность : 1 ч. 45 м.
Общий поток : 6317 Кбит/сек
Дата кодирования : UTC 2012-08-21 09:20:26
Программа кодирования : mkvmerge v4.9.1 (Ich will)
Библиотека кодирования : libebml v1.2.1 + libmatroska v1.1.1

Видео
Идентификатор : 1
Формат : AVC
Формат/Информация : Advanced Video Codec
Профиль формата : [email protected]
Параметр CABAC формата : Да
Параметр ReFrames формата : 9 кадров
Параметры GOP формата : M=1, N=51
Идентификатор кодека : V_MPEG4/ISO/AVC
Продолжительность : 1 ч. 45 м.
Битрейт : 4423 Кбит/сек
Ширина : 1280 пикс.
Высота : 720 пикс.
Соотношение сторон : 16:9
Частота кадров : 23,976 кадр/сек
Цветовое пространство : YUV
Подвыборка цветности : 4:2:0
Битовая глубина : 8 бит
Тип развёртки : Прогрессивная
Бит/(Пиксели*Кадры) : 0.200
Размер потока : 3,17 Гбайт (68%)
Заголовок : Hirokin.2011.720p.BluRay.x264.DTS-HDChina
Библиотека кодирования : x264 core 120 r2164 da19765
Настройки программы : cabac=1 / ref=9 / deblock=1:-3:-3 / analyse=0x3:0x133 / me=umh / subme=10 / psy=1 / psy_rd=1.00:0.00 / mixed_ref=1 / me_range=32 / chroma_me=1 / trellis=2 / 8x8dct=1 / cqm=0 / deadzone=21,11 / fast_pskip=1 / chroma_qp_offset=-2 / threads=12 / sliced_threads=0 / nr=0 / decimate=0 / interlaced=0 / bluray_compat=0 / constrained_intra=0 / bframes=7 / b_pyramid=2 / b_adapt=2 / b_bias=0 / direct=3 / weightb=1 / open_gop=0 / weightp=2 / keyint=250 / keyint_min=23 / scenecut=40 / intra_refresh=0 / rc_lookahead=60 / rc=2pass / mbtree=0 / bitrate=4423 / ratetol=1.0 / qcomp=0.60 / qpmin=0 / qpmax=69 / qpstep=4 / cplxblur=20.0 / qblur=0.5 / vbv_maxrate=30000 / vbv_bufsize=30000 / nal_hrd=none / ip_ratio=1.50 / pb_ratio=1.30 / aq=1:1.00
Язык : English

Аудио #1
Идентификатор : 2
Формат : AC-3
Формат/Информация : Audio Coding 3
Расширение режима : CM (complete main)
Идентификатор кодека : A_AC3
Продолжительность : 1 ч. 45 м.
Вид битрейта : Постоянный
Битрейт : 384 Кбит/сек
Каналы : 6 каналов
Расположение каналов : Front: L C R, Side: L R, LFE
Частота : 48,0 КГц
Битовая глубина : 16 бит
Метод сжатия : С потерями
Размер потока : 290 Мбайт (6%)
Заголовок : DD 5.1 @ 384 kbps - MVO, R5
Язык : Russian

Аудио #2
Идентификатор : 3
Формат : DTS
Формат/Информация : Digital Theater Systems
Идентификатор кодека : A_DTS
Продолжительность : 1 ч. 45 м.
Вид битрейта : Постоянный
Битрейт : 1510 Кбит/сек
Каналы : 2 канала
Расположение каналов : Front: L R
Частота : 48,0 КГц
Битовая глубина : 24 бит
Метод сжатия : С потерями
Размер потока : 1,11 Гбайт (24%)
Заголовок : DTS 2.0 @ 1536 kbps
Язык : English

Текст #1
Идентификатор : 4
Формат : UTF-8
Идентификатор кодека : S_TEXT/UTF8
Идентификатор кодека/Информация : UTF-8 Plain Text
Язык : Russian

Текст #2
Идентификатор : 5
Формат : UTF-8
Иде
8b24e05de23799f7cf4440fa29fa4f0e08fba76fПавшая империя / Hirokin (Алехо Мо-Сан, фантастика, боевик, драма, приключения, 2011) [BDRip 720p, Профессиональный (многоголосый, закадровый), Оригинал, Sub [Eng, Rus]] Павшая империя / Hirokin (Алехо Мо-Сан, фантастика, боевик, драма, приключения, 2011) [BDRip 720p, Профессиональный (многоголосый, закадровый), Оригинал, Sub [Eng, Rus]] " />

Аплоадер: Админ, дата: 22-08-2012, 17:25, торрент скачан: 359 раз

Понравилась раздача? Посмотрите эти:
  • Мэрайа Мунди и шкатулка Мидаса / The Adventurer: The Curse of the Midas Box ...
  • Джобс: Империя соблазна / jOBS (Джошуа Майкл Штерн, драма, биография, 2013) ...
  • Погнали! / Getaway (Кортни Соломон, боевик, криминал, 2013) [BDRip 1080p, П ...
  • Больше чем мёд / More Than Honey (документальный, 2012) [BDRip 720p, Профес ...
  • Летучий отряд Скотланд-Ярда / The Sweeney (Ник Лав, Боевик, драма, криминал ...
  • Крученый мяч / Trouble with the Curve (Роберт Лоренц, Драма, 2012) [BDRip-A ...
  • Суррогат / The Sessions (Бен Луин, Драма, 2012) [BDRip-AVC, Профессиональны ...
  • Банда Келли / Ned Kelly (Грегор Джордан, Боевик, Криминал, Приключения, Вес ...
  • Ошибка телохранителя / The Girl from the Naked Eye (Дэвид Рен, боевик, трил ...
  • Секса много не бывает / Un heureux evenement (Реми Безансон, драма, комедия ...
  • Иностранный легион / La cité (Ким Нгуйен / Kim Nguyen, драма, 2010) [DVDRip ...
  • Люди Икс: Первый класс / X-Men: First Class (Мэттью Вон / Matthew Vaughn, ф ...
  • Образец 47 / Marvel One-Shot: Item 47 (Луис Д’Эспозито, короткометражка, фа ...
  • Безумные мелодии: Кажется я видел котика / Looney Tunes: I Tawt I Taw а Pud ...
  • Ренессанс / Renaissance (Кристиан Волькман / мультфильм, фантастика, боевик ...
  • Немыслимое / Unthinkable (Грегор Джордан, триллер, драма, 2009) [BDRip 720p ...
  • Жестокие игры / Cruel Intentions (Роджер Камбл, мелодрама, драма, 1999) [BD ...
  • Заражение / Contagion (Стивен Содерберг, Фантастика, 2011) [BDRip 1080p, Пр ...
  • Переростки / The Inbetweeners (Бен Палмер / Ben Palmer, комедия, 2011) [BDR ...
  • Схватка / The Grey (Джо Карнахан, боевик, триллер, драма, приключения, 2012 ...
  • Последняя любовь на Земле / Perfect Sense (Дэвид МакКензи, фантастика, драм ...
  • Бедная богатая девочка / Young Adult (Джейсон Райтман, драма, комедия, 2011 ...
  • Бессонная ночь / Nuit blanche (Фредерик Жарден, Боевик, 2011) [BDRip 720p, ...
  • Бульвар спасения / Salvation Boulevard (Джордж Рэтлифф, Боевик, триллер, др ...
  • Павшая империя / Hirokin (Алехо Мо-Сан, фантастика, боевик, драма, приключе ...
  • Информация
    Посетители, находящиеся в группе Гости, не могут оставлять комментарии к данной публикации.