вход на сайт

Имя пользователя :
Пароль :

Восстановление пароля Регистрация
Притворись моей женой / Just go with it (Деннис Дуган, мелодрама, комедия, 2011) [BDRemux 1080p, дублированный, русский и украинский закадровый многоголосый + Оригинал (англ) + субтитры (рус, англ)]
Рейтинг:
(голосов: 1)



[img]{THEME}/images/logopost.png[/img]



Притворись моей женой / Just go with it
"Иногда, чтобы влюбиться, нужно... жениться"

Год выпуска: 2011
Страна: США
Производство: Columbia Pictures
Жанр: мелодрама, комедия

Режиссёр: Деннис Дуган
В ролях: Адам Сэндлер, Дженнифер Энистон, Николь Кидман, Ник Свардсон, Бруклин Декер, Бэйли Мэдисон, Дэйв Мэтьюз, Кевин Нилон, Рэйчел Дрэч, Аллен Коверт

Перевод: дублированный, русский и украинский закадровый многоголосый + Оригинал (англ)
Субтитры: Russian [Full,Forced], English

Описание: Главный герой Дэнни встретил Дэлвин, и чтобы произвести впечатление, рассказал о своей несуществующей жене и тяготах семейной жизни. Вместо ожидаемого сочувствия, Дэлвин хочет познакомится с его женой, и Дэнни необходимо срочно придумать, как выпутаться из столь интересного положения. К счастью, у него есть знакомая коллега Кэтрин, обаятельная и с детьми, которые и сыграют на время роль его семьи.

IMDB: 6.3/10
КиноПоиск: 7.351/10



Качество: BDRemux 1080p
Продолжительность: 01:56:29

Формат: MKV
Видео кодек: MPEG-4 AVC
Аудио кодек: AC3
Видео: 1920x1080 (16:9),24.6 Mbps,23.976 fps, 0.496 bit/pix
Аудио №1: Russian:48 kHz, AC3, 3/2 (L,C,R,l,r) + LFE ch, ~448.00 kbps avg
Аудио №2: Ukrainian:48 kHz, AC3, 3/2 (L,C,R,l,r) + LFE ch, ~448.00 kbps avg
Аудио №3: English / DTS-HD Master Audio / 5.1 / 48 kHz / 2848 kbps / 24-bit (DTS Core: 5.1 / 48 kHz / 1509 kbps / 24-bit)
Аудио №4: English: 48 kHz, AC3, 2/0 (L,R) ch, ~192 Kbps.00 kbps avg |Commentary|
Аудио №5: English: 48 kHz, AC3, 2/0 (L,R) ch, ~192 Kbps.00 kbps avg |Commentary|

MediaInfo ▼
General
Unique ID : 185002156509268762161028973763501370397 (0x8B2E1E8A6D8807E3A5803AB1C3722C1D)
Complete name : C:Мои ДокументыФильмыBlu-RayПритворись моей женой.mkv
Format : Matroska
File size : 22.8 GiB
Duration : 1h 56mn
Overall bit rate : 28.0 Mbps
Movie name : -Talian-
Encoded date : UTC 2011-05-25 12:22:53
Writing application : mkvmerge v3.3.0 (Language) сборка от May 14 2010 17:11:50
Writing library : libebml v0.8.0 + libmatroska v0.9.0

Video
ID : 1
Format : AVC
Format/Info : Advanced Video Codec
Format profile : [email protected]
Format settings, CABAC : Yes
Format settings, ReFrames : 2 frames
Codec ID : V_MPEG4/ISO/AVC
Duration : 1h 56mn
Bit rate mode : Variable
Bit rate : 24.6 Mbps
Width : 1 920 pixels
Height : 1 080 pixels
Display aspect ratio : 16:9
Frame rate : 23.976 fps
Color space : YUV
Chroma subsampling : 4:2:0
Bit depth : 8 bits
Scan type : Progressive
Bits/(Pixel*Frame) : 0.496
Stream size : 20.1 GiB (88%)
Title : Just.Go.With.It.2011.1080p. BD-Remux
Language : English

Audio #1
ID : 2
Format : AC-3
Format/Info : Audio Coding 3
Mode extension : CM (complete main)
Codec ID : A_AC3
Duration : 1h 56mn
Bit rate mode : Constant
Bit rate : 448 Kbps
Channel(s) : 6 channels
Channel positions : Front: L C R, Side: L R, LFE
Sampling rate : 48.0 KHz
Bit depth : 16 bits
Compression mode : Lossy
Stream size : 373 MiB (2%)
Title : DUB
Language : Russian

Audio #2
ID : 3
Format : AC-3
Format/Info : Audio Coding 3
Mode extension : CM (complete main)
Codec ID : A_AC3
Duration : 1h 56mn
Bit rate mode : Constant
Bit rate : 448 Kbps
Channel(s) : 6 channels
Channel positions : Front: L C R, Side: L R, LFE
Sampling rate : 48.0 KHz
Bit depth : 16 bits
Compression mode : Lossy
Stream size : 373 MiB (2%)
Title : Dub
Language : Ukrainian

Audio #3
ID : 4
Format : DTS
Format/Info : Digital Theater Systems
Format profile : MA / Core
Codec ID : A_DTS
Duration : 1h 56mn
Bit rate mode : Variable
Bit rate : 1 561 Kbps / 1 510 Kbps
Channel(s) : 6 channels
Channel positions : Front: L C R, Side: L R, LFE
Sampling rate : 48.0 KHz
Bit depth : 24 bits
Compression mode : Lossless / Lossy
Title : Original
Language : English

Audio #4
ID : 5
Format : AC-3
Format/Info : Audio Coding 3
Format profile : Dolby Digital
Mode extension : CM (complete main)
Codec ID : A_AC3
Duration : 1h 56mn
Bit rate mode : Constant
Bit rate : 192 Kbps
Channel(s) : 2 chann
9e270a251b5fa8130c04a00168cb20086d9a16bfПритворись моей женой / Just go with it (Деннис Дуган, мелодрама, комедия, 2011) [BDRemux 1080p, дублированный, русский и украинский закадровый многоголосый + Оригинал (англ) + субтитры (рус, англ)] Притворись моей женой / Just go with it (Деннис Дуган, мелодрама, комедия, 2011) [BDRemux 1080p, дублированный, русский и украинский закадровый многоголосый + Оригинал (англ) + субтитры (рус, англ)] " />

Аплоадер: Админ, дата: 22-08-2012, 15:50, торрент скачан: 359 раз

Понравилась раздача? Посмотрите эти:
  • Пастырь / Priest (Скотт Чарльз Стюарт, ужасы, фантастика, боевик, триллер, ...
  • Штурм Белого дома / White House Down (Роланд Эммерих, боевик, триллер, 2013 ...
  • Притворись моей женой / Just Go with It (Деннис Дуган, мелодрама, комедия, ...
  • Притворись моей женой / Just Go with It (Деннис Дуган, мелодрама, комедия, ...
  • Нубы / Noobz (Блейк Фриман, Комедия, 2012) [BDRemux 1080p, Профессиональный ...
  • Родительский беспредел / Parental Guidance (Энди Фикмен, Комедия, семейный, ...
  • Притворись моей женой / Just Go with It (Деннис Дуган, мелодрама, комедия, ...
  • Притворись моей женой / Just Go with It (Деннис Дуган, мелодрама, комедия, ...
  • Притворись моей женой / Just Go with It (Дэннис Дуган, мелодрама, комедия, ...
  • Персонаж / Stranger Than Fiction (Марк Форстер, Комедия, драма, фантастика, ...
  • Стыд / Shame (Стив МакКуин, драма, 2011) [BDRemux 1080p, Дублированный + Од ...
  • Рапунцель: Счастлива навсегда / Tangled Ever After ( Нэйтан Грено, Байрон Х ...
  • Бульвар страха / Rosewood Lane (Виктор Сальва, Ужасы, триллер, 2011) [BD-Re ...
  • Призрак в школе / Haunted High (Джеффри Скотт Ландо, ужасы, фантастика, 201 ...
  • Притворись моей женой / Just Go with It (Дэннис Дуган, мелодрама, комедия, ...
  • Притворись моей женой / Just Go with It (Дэннис Дуган, мелодрама, комедия, ...
  • Притворись моей женой / Just Go with It (Дэннис Дуган, мелодрама, комедия, ...
  • Притворись моей женой / Just Go with It (Дэннис Дуган, мелодрама, комедия, ...
  • Притворись моей женой / Just Go with It (Деннис Дуган, мелодрама, комедия, ...
  • Притворись моей женой / Just Go with It (Деннис Дуган, мелодрама, комедия, ...
  • Информация
    Посетители, находящиеся в группе Гости, не могут оставлять комментарии к данной публикации.