вход на сайт

Имя пользователя :
Пароль :

Восстановление пароля Регистрация
Морской бой / Battleship (Питер Берг, Фантастика, Боевик, Триллер, 2012) [BDRip 720р, Дубляж + Оригинал, Sub(rus,eng)]
Рейтинг:
(голосов: 1)



[img]{THEME}/images/logopost.png[/img]



Год выпуска: 2012
Страна: США
Производство: Battleship Delta Productions, Film 44, Bluegrass Films
Жанр: фантастика, боевик, триллер

Режиссёр: Питер Берг
В ролях: Тейлор Китч, Александр Скарсгард, Рианна, Бруклин Декер, Таданобу Асано, Лиам Нисон, Джон Туи, Грегори Д. Гэдсон, Джесси Племонс, Хамиш Линклэйтер

Перевод: Дубляж + Оригинал
Язык субтитров: Русский (Forced, Blu-ray, Voronine), английский (Full, SDH, SHD - COLOR)
Вид субтитров: Вшитые отключаемые

Описание: Мы посылаем сигналы в космос и ждем ответа. Но уверены ли мы, что хотим его получить? Что если пришельцы потенциально опасны? В 2009 году на конференции в Вашингтоне астронавт Эдгар Митчелл, побывавший на Луне, сделал сенсационное заявление о существовании внеземной жизни. Теперь мы знаем, контакт не просто возможен, он неизбежен!
Сэмпл

Качество: BDRip 720p | исх. Battleship 2012 Blu-Ray (1080р)
Продолжительность: 02:11:15

Формат: MKV
Видео кодек: MPEG-4 AVC/H.264
Аудио кодек: AC3
Видео: 1280x528 (2.40:1), 23.976 fps, x264 ~ 4128 kbps avg, 0.179 bit/pixel
Аудио:#1 48 kHz, AC3 Dolby Digital, 6 ch (L,C,R,l,r) + LFE ch, ~448 kbps Русский
Аудио:#2 48 kHz, AC3 Dolby Digital, 2 ch (L,C,R,l,r) + LFE ch, ~192 kbps Английский

Премьера (мир): 3 апреля 2012
Премьера (РФ): 19 апреля 2012, «UPI»

MediaInfo ▼Общее
Уникальный идентификатор : 176499759071542386381028179072234308340 (0x84C89DFB66443BFCBE24AB7249B442F4)
Полное имя : E:CinemaMorskoy.boy.2012.x264.BDRip.720p.mkv
Формат : Matroska
Версия формата : Version 1
Размер файла : 4,37 Гбайт
Продолжительность : 2 ч. 11 м.
Общий поток : 4772 Кбит/сек
Название фильма : Морской бой / Battleship (2012) BDRip.720p
Дата кодирования : UTC 2012-08-20 12:45:19
Программа кодирования : mkvmerge v2.3.0 (Freak U) built on Sep 8 2008 18:32:16
Библиотека кодирования : libebml v0.7.7 + libmatroska v0.8.1

Видео
Идентификатор : 1
Формат : AVC
Формат/Информация : Advanced Video Codec
Профиль формата : [email protected]
Параметр CABAC формата : Да
Параметр ReFrames формата : 12 кадров
Идентификатор кодека : V_MPEG4/ISO/AVC
Продолжительность : 2 ч. 11 м.
Битрейт : 4128 Кбит/сек
Ширина : 1280 пикселей
Высота : 528 пикселей
Соотношение сторон : 2,40:1
Режим частоты кадров : Постоянный
Частота кадров : 23,976 кадра/сек
Цветовое пространство : YUV
Субдискретизация насыщенности : 4:2:0
Битовая глубина : 8 бит
Тип развёртки : Прогрессивная
Бит/(Пиксели*Кадры) : 0.255
Размер потока : 3,70 Гбайт (85%)

Библиотека кодирования : x264 core 125 r2200 999b753
Настройки программы : cabac=1 / ref=12 / deblock=1:-3:-3 / analyse=0x3:0x133 / me=umh / subme=10 / psy=1 / psy_rd=1.10:0.00 / mixed_ref=1 / me_range=32 / chroma_me=1 / trellis=2 / 8x8dct=1 / cqm=0 / deadzone=21,11 / fast_pskip=1 / chroma_qp_offset=-2 / threads=12 / lookahead_threads=2 / sliced_threads=0 / nr=0 / decimate=1 / interlaced=0 / bluray_compat=0 / constrained_intra=0 / bframes=8 / b_pyramid=2 / b_adapt=2 / b_bias=0 / direct=1 / weightb=1 / open_gop=0 / weightp=2 / keyint=240 / keyint_min=23 / scenecut=40 / intra_refresh=0 / rc_lookahead=60 / rc=2pass / mbtree=1 / bitrate=4128 / ratetol=1.0 / qcomp=0.60 / qpmin=0 / qpmax=69 / qpstep=4 / cplxblur=20.0 / qblur=0.5 / ip_ratio=1.40 / aq=1:1.00
Язык : English
Default : Да
Forced : Нет

Аудио #1
Идентификатор : 2
Формат : AC-3
Формат/Информация : Audio Coding 3
Расширение режима : CM (complete main)
Параметр Endianness формата : Big
Идентификатор кодека : A_AC3
Продолжительность : 2 ч. 11 м.
Вид битрейта : Постоянный
Битрейт : 448 Кбит/сек
Каналы : 6 каналов
Расположение каналов : Front: L C R, Side: L R, LFE
Частота : 48,0 КГц
Битовая глубина : 16 бит
Метод сжатия : С потерями
Размер потока : 421 Мбайт (9%)

Язык : Russian
Default : Да
Forced : Нет

Аудио #2
Идентификатор : 3
Формат : AC-3
Формат/Информация : Audio Coding 3
Расширение режима : CM (complete main)
Параметр Endianness формата : Big
Иде
b29c4b60a6a271098edb9e7515e7e4765a5b1417Морской бой / Battleship (Питер Берг, Фантастика, Боевик, Триллер, 2012) [BDRip 720р, Дубляж + Оригинал, Sub(rus,eng)] Морской бой / Battleship (Питер Берг, Фантастика, Боевик, Триллер, 2012) [BDRip 720р, Дубляж + Оригинал, Sub(rus,eng)] " />

Аплоадер: Админ, дата: 21-08-2012, 03:24, торрент скачан: 359 раз

Понравилась раздача? Посмотрите эти:
  • [Phone, iPod] Морской бой / Battleship (Питер Берг, фантастика, боевик, три ...
  • Морской бой / Battleship (Питер Берг, Фантастика, боевик, триллер, приключе ...
  • Морской бой / Battleship (Терри Майлз, фантастика, боевик, триллер, приключ ...
  • Морской бой / Battleship (Питер Берг, фантастика, боевик, триллер, приключе ...
  • Морской бой / Battleship (Питер Берг, Фантастика, боевик, триллер, приключе ...
  • Морской бой / Battleship (Питер Берг, фантастика, боевик, триллер, приключе ...
  • Морской бой / Battleship (Питер Берг, Фантастика, боевик, триллер, приключе ...
  • Морской бой / Battleship (Питер Берг, фантастика, боевик, триллер, приключе ...
  • Морской бой / Battleship (Питер Берг, фантастика, боевик, триллер, приключе ...
  • Морской бой / Battleship (Питер Берг, фантастика, боевик, триллер, приключе ...
  • Морской бой / Battleship (Питер Берг, Фантастика, боевик, триллер, приключе ...
  • Морской бой / Battleship (Питер Берг, Фантастика, боевик, триллер, 2012г.) ...
  • Морской бой / Battleship (Питер Берг, Фантастика, боевик, триллер, приключе ...
  • Морской бой / Battleship (Питер Берг, фантастика, боевик, триллер, приключе ...
  • Морской бой / Battleship (Питер Берг, Фантастика, боевик, триллер, приключе ...
  • Морской бой / Battleship (Питер Берг, Фантастика, боевик, триллер, приключе ...
  • Морской бой / Battleship (Питер Берг, Фантастика, боевик, триллер, приключе ...
  • Морской бой / Battleship (Питер Берг, Фантастика, Боевик, Триллер, 2012) [3 ...
  • Морской бой / Battleship (Питер Берг, Фантастика, Боевик, Триллер, 2012) [4 ...
  • Морской бой / Battleship (Питер Берг, Фантастика, боевик, триллер, приключе ...
  • Морской бой / Battleship (Питер Берг, Фантастика, боевик, триллер, приключе ...
  • Морской бой / Battleship (Питер Берг, Фантастика, боевик, триллер, приключе ...
  • Морской бой / Battleship (Питер Берг, фантастика, боевик, триллер, приключ ...
  • Морской бой / Battleship (Питер Берг, фантастика, боевик, триллер, приключе ...
  • Морской бой / Battleship (Питер Берг / Peter Berg) (фантастика, боевик, три ...
  • Информация
    Посетители, находящиеся в группе Гости, не могут оставлять комментарии к данной публикации.