вход на сайт

Имя пользователя :
Пароль :

Восстановление пароля Регистрация
Голодные игры / The Hunger Games (Гэри Росс, Фантастика, боевик, приключения, 2012) [BDRip 720p, Дубляж, Оригинал, Sub]
Рейтинг:
(голосов: 1)



[img]{THEME}/images/logopost.png[/img]



Голодные игры / The Hunger Games

Год выпуска: 2012
Страна: США
Производство: Larger Than Life Productions, Lionsgate, Color Force
Жанр: Фантастика, боевик, приключения

Режиссёр: Гэри Росс
В ролях: Дженнифер Лоуренс, Лиам Хемсворт, Джош Хатчерсон, Элизабет Бэнкс, Вуди Харрельсон, Стенли Туччи, Ленни Кравиц, Уэс Бентли, Дональд Сазерленд, Уиллоу Шилдс

Перевод: Дубляж, Оригинал
Субтитры: Russian (Blu-ray), English, English (SDH)

Описание: Будущее. Деспотичное государство ежегодно устраивает показательные игры на выживание, за которыми в прямом эфире следит весь мир. Жребий участвовать в Играх выпадает юной Китнисс и тайно влюбленному в нее Питу. Они знакомы с детства, но теперь должны стать врагами. Ведь по нерушимому закону Голодных игр победить может только один из 24 участников. Судьям не важно кто выиграет, главное — зрелище. И на этот раз зрелище будет незабываемым.

Релиз от

Качество: BDRip 720p
Продолжительность: 02:22:33 час.


Формат: MKV
Видео кодек: x264
Аудио кодек: DTS
Видео: 1280x534 (2.40:1), 23.976 fps, x264 ~7 240 kbps avg, 0.442 bit/pixel
Аудио#1: 48 kHz/16-bit, DTS, 3/2 (L,C,R,l,r) + LFE ch, ~1536.00 kbps avg- (Дубляж)
Аудио#2: 48 kHz, DTS, 3/2 (L,C,R,l,r) + LFE ch, ~1536.00 kbps avg- (English)

MediaInfo ▼Complete name : The.Hunger.Games.2012.720p.BluRay.Rus.Eng.HDCLUB.mkv
Format : Matroska
Format version : Version 2
File size : 10.2 GiB
Duration : 2h 22mn
Overall bit rate : 10.2 Mbps
Movie name : The Hunger Games (2012) - Release for HDCLUB
Encoded date : UTC 2012-08-18 18:45:27
Writing application : mkvmerge v3.4.0 (Rapunzel) built on May 15 2010 09:38:20
Writing library : libebml v0.8.0 + libmatroska v0.9.0

Video
ID : 1
Format : AVC
Format/Info : Advanced Video Codec
Format profile : [email protected]
Format settings, CABAC : Yes
Format settings, ReFrames : 10 frames
Codec ID : V_MPEG4/ISO/AVC
Duration : 2h 22mn
Bit rate : 7 240 Kbps
Width : 1 280 pixels
Height : 534 pixels
Display aspect ratio : 2.40:1
Frame rate : 23.976 fps
Color space : YUV
Chroma subsampling : 4:2:0
Bit depth : 8 bits
Scan type : Progressive
Bits/(Pixel*Frame) : 0.442
Stream size : 7.00 GiB (69%)
Title : Release for HDCLUB
Writing library : x264 core 125 r2208 d9d2288
Encoding settings : cabac=1 / ref=10 / deblock=1:-3:-3 / analyse=0x3:0x113 / me=umh / subme=10 / psy=1 / psy_rd=1.10:0.15 / mixed_ref=1 / me_range=32 / chroma_me=1 / trellis=2 / 8x8dct=1 / cqm=0 / deadzone=21,11 / fast_pskip=0 / chroma_qp_offset=-2 / threads=12 / lookahead_threads=2 / sliced_threads=0 / nr=0 / decimate=1 / interlaced=0 / bluray_compat=0 / constrained_intra=0 / bframes=6 / b_pyramid=2 / b_adapt=2 / b_bias=0 / direct=3 / weightb=1 / open_gop=0 / weightp=2 / keyint=250 / keyint_min=23 / scenecut=40 / intra_refresh=0 / rc_lookahead=60 / rc=2pass / mbtree=0 / bitrate=7240 / ratetol=1.0 / qcomp=0.60 / qpmin=0 / qpmax=69 / qpstep=4 / cplxblur=20.0 / qblur=0.5 / vbv_maxrate=40000 / vbv_bufsize=30000 / nal_hrd=none / ip_ratio=1.40 / pb_ratio=1.30 / aq=1:0.80
Language : English
Default : No
Forced : No

Audio #1
ID : 2
Format : DTS
Format/Info : Digital Theater Systems
Codec ID : A_DTS
Duration : 2h 22mn
Bit rate mode : Constant
Bit rate : 1 510 Kbps
Channel(s) : 6 channels
Channel positions : Front: L C R, Side: L R, LFE
Sampling rate : 48.0 KHz
Bit depth : 16 bits
Compression mode : Lossy
Stream size : 1.50 GiB (15%)
Title : DTS 5.1 @ 1536 kbps - Дублированный, BluRay
Language : Russian
Default : Yes
Forced : No

Audio #2
ID : 3
Format : DTS
Format/Info : Digital Theater Systems
Codec ID : A_DTS
Duration : 2h 22mn
Bit rate mode : Constant
Bit rate : 1 510 Kbps
Channel(s) : 6 channels
Channel positions : Front: L C R, Side: L R, LFE
Sampling rate : 48.0 KHz
Bit depth : 24 bits
Compression mode : Lossy
Delay relative to video : 11ms
Stream size : 1.50 GiB (15%)
Title : DTS 5.1 @ 1536 kbps
Language : English
Default : No
Forc
5de89ff29cd5db130941cb37676dcbe20c035d32Голодные игры / The Hunger Games (Гэри Росс, Фантастика, боевик, приключения, 2012) [BDRip 720p, Дубляж, Оригинал, Sub] Голодные игры / The Hunger Games (Гэри Росс, Фантастика, боевик, приключения, 2012) [BDRip 720p, Дубляж, Оригинал, Sub] " />

Аплоадер: Админ, дата: 19-08-2012, 03:30, торрент скачан: 359 раз

Понравилась раздача? Посмотрите эти:
  • Паркер / Parker (Тейлор Хэкфорд, Боевик, триллер, криминал, 2013) [BDRip 7 ...
  • Военные Игры / War Games: At The End Of The Day ( Козимо Алема, триллер, у ...
  • Голодные игры / The Hunger Games (Гэри Росс, Фантастика, боевик, приключени ...
  • Голодные игры / The Hunger Games (Гэри Росс, Фантастика, боевик, приключени ...
  • Голодные игры / The Hunger Games (Гэри Росс, Фантастика, боевик, приключени ...
  • Голодные игры / The Hunger Games (Гэри Росс, Фантастика, боевик, приключени ...
  • Голодные игры / The Hunger Games (Гэри Росс, Фантастика, боевик, приключени ...
  • Дети шпионов 4D / Spy Kids: All the Time in the World in 4D (Роберт Родриге ...
  • Закон доблести / Act of Valor (Майк МакКой, Скотт Во, боевик, триллер, прик ...
  • Голодные игры / The Hunger Games (Гэри Росс, Фантастика, боевик, приключени ...
  • Голодные игры / The Hunger Games (Гэри Росс, Фантастика, боевик, приключени ...
  • Морской бой / Battleship (Питер Берг, Фантастика, боевик, триллер, приключе ...
  • Голодные игры / The Hunger Games (Гэри Росс, Фантастика, боевик, приключени ...
  • Люди в черном 3 / Men in Black III (Барри Зонненфельд, Фантастика, боевик, ...
  • Голодные игры / The Hunger Games (Гэри Росс, Фантастика, боевик, приключени ...
  • Голодные игры / The Hunger Games (Гэри Росс, Фантастика, боевик, приключени ...
  • Голодные игры / The Hunger Games (Гэри Росс, фантастика, боевик, приключени ...
  • Голодные игры / The Hunger Games (Гэри Росс, Фантастика, Боевик, Приключени ...
  • Голодные игры / The Hunger Games (Гэри Росс, Фантастика, боевик, приключени ...
  • Голодные игры / The Hunger Games (Гэри Росс, Фантастика, боевик, приключени ...
  • Голодные игры / The Hunger Games (Гэри Росс, фантастика, боевик, приключени ...
  • Голодные игры / The Hunger Games (Гэри Росс, фантастика, боевик, приключени ...
  • Голодные игры / The Hunger Games (Гэри Росс, фантастика, боевик, приключен ...
  • Голодные игры / The Hunger Games (Гэри Росс, Фантастика, Боевик, Приключени ...
  • Голодные игры / The Hunger Games (Гэри Росс, Фантастика, Боевик, Приключени ...
  • Информация
    Посетители, находящиеся в группе Гости, не могут оставлять комментарии к данной публикации.