вход на сайт

Имя пользователя :
Пароль :

Восстановление пароля Регистрация
Коломбиана [Расширенная версия] / Colombiana [Unrated Cut] (Оливье Мегатон, боевик, триллер, драма, криминал, 2011) [BDRip 720p, Дублированный + Оригинал + SUB]
Рейтинг:
(голосов: 1)



[img]{THEME}/images/logopost.png[/img]



Коломбиана / Colombiana
«Месть бывает прекрасна»
[Расширенная версия / Unrated Cut]

Год выпуска: 2011
Страна: США Франция
Производство: A.J.O.Z. Films, Canal+ [fr], Ciné Cinémas, Europa Corp., Grive Productions, TF1 Films Production
Жанр: боевик, триллер, драма, криминал

Режиссёр: Оливье Мегатон | Olivier Megaton
В ролях: Зои Салдана, Амендла Стенберг, Майкл Вартан, Клифф Кёртис, Каллум Блу, Жорди Молья, Макс Мартини, Ленни Джеймс, Грэм МакТавиш, Моника Акоста...

Перевод: 1 - Профессиональный (полное дублирование)
2 - Оригинал (Английский)
Субтитры: Русские (Forced, Full), Английские (Full)

Описание:
Кат было всего 9, когда на ее глазах неизвестные жестоко убили ее родителей. Девочка сумела убежать от бандитов и найти убежище в Чикаго у своего дяди. Теперь Кат профессиональный убийца. Во что бы то ни стало она должна распутать клубок давнего преступления и отомстить за смерть родителей. Все следы ведут к колумбийскому наркобарону Дону Лусиа. Единственная нить, соединяющая девушку-убийцу с миром обычных людей — это ее возлюбленный, который не догадывается, чем на самом деле занимается его подружка…



Дата премьеры (мир): 27 июля 2011
Дата премьеры (РФ): 8 сентября 2011, «Парадиз»
Релиз на DVD: 20 декабря 2011, «Парадиз Медиа»
Релиз на Blu-Ray: 20 декабря 2011, «Парадиз Медиа»

Качество: BDRip 720p
Продолжительность: 01:51:35 час.

Формат: MKV
Видео кодек: H.264
Аудио кодек: DTS
Видео: 1280x544 (2.35:1), 23.976 fps, H.264 ~4 974 kbps avg, 0.298 bit/pixel
Аудио #1: 48 kHz, DTS, 3/2 (L,C,R,l,r) + LFE ch, ~1510.00 kbps avg | Профессиональный (полное дублирование)
Аудио #2: 48 kHz, DTS, 3/2 (L,C,R,l,r) + LFE ch, ~1510.00 kbps avg | Оригинал (Английский)
MediaInfo ▼Format : Matroska
Format version : Version 2
File size : 6.23 GiB
Duration : 1h 51mn
Overall bit rate : 7 990 Kbps
Movie name : Reliz by FFmpeg
Writing application : mkvmerge v5.0.1 (Es ist Sommer) built on Oct 24 2011 19:45:06
Writing library : libebml v1.2.2 + libmatroska v1.3.0
Video #1
ID : 1
Format : AVC
Format/Info : Advanced Video Codec
Format profile : [email protected]
Format settings, CABAC : Yes
Format settings, ReFrames : 10 frames
Codec ID : V_MPEG4/ISO/AVC
Duration : 1h 51mn
Bit rate : 4 974 Kbps
Width : 1 280 pixels
Height : 544 pixels
Display aspect ratio : 2.35:1
Frame rate : 23.976 fps
Color space : YUV
Chroma subsampling : 4:2:0
Bit depth : 8 bits
Scan type : Progressive
Bits/(Pixel*Frame) : 0.298
Stream size : 3.75 GiB (60%)
Writing library : x264 core 119 r2106 07efeb4
Encoding settings : cabac=1 / ref=10 / deblock=1:-2:-2 / analyse=0x3:0x113 / me=umh / subme=10 / psy=1 / psy_rd=1.00:0.00 / mixed_ref=1 / me_range=64 / chroma_me=1 / trellis=2 / 8x8dct=1 / cqm=0 / deadzone=21,11 / fast_pskip=0 / chroma_qp_offset=-2 / threads=6 / sliced_threads=0 / nr=0 / decimate=1 / interlaced=0 / bluray_compat=0 / constrained_intra=0 / bframes=10 / b_pyramid=2 / b_adapt=2 / b_bias=0 / direct=3 / weightb=1 / open_gop=0 / weightp=2 / keyint=240 / keyint_min=24 / scenecut=40 / intra_refresh=0 / rc_lookahead=80 / rc=2pass / mbtree=1 / bitrate=4974 / ratetol=1.0 / qcomp=0.60 / qpmin=0 / qpmax=69 / qpstep=4 / cplxblur=20.0 / qblur=0.5 / ip_ratio=1.40 / aq=1:1.00
Language : English
Audio #2
ID : 2
Format : DTS
Format/Info : Digital Theater Systems
Codec ID : A_DTS
Duration : 1h 51mn
Bit rate mode : Constant
Bit rate : 1 510 Kbps
Channel(s) : 6 channels
Channel positions : Front: L C R, Side: L R, LFE
Sampling rate : 48.0 KHz
Bit depth : 16 bits
Compression mode : Lossy
Stream size : 1.18 GiB (19%)
Title : Dub
Language : Russian
Audio #3
ID : 3
Format : DTS
Format/Info : Digital Theater Systems
Codec ID : A_DTS
Duration : 1h 51mn
Bit rate mode : Constant
Bit rate : 1 510 Kbps
Channel(s) : 6 channels
Channel positions : Front: L C R, Side: L R,
74f14f61a72d4ed0c2aaa1108e25a3f4e358ea89Коломбиана [Расширенная версия] / Colombiana [Unrated Cut] (Оливье Мегатон, боевик, триллер, драма, криминал, 2011) [BDRip 720p, Дублированный + Оригинал + SUB] Коломбиана [Расширенная версия] / Colombiana [Unrated Cut] (Оливье Мегатон, боевик, триллер, драма, криминал, 2011) [BDRip 720p, Дублированный + Оригинал + SUB] " />

Аплоадер: Админ, дата: 18-08-2012, 03:15, торрент скачан: 359 раз

Понравилась раздача? Посмотрите эти:
  • Паркер / Parker (Тейлор Хэкфорд, Боевик, триллер, криминал, 2013) [BDRip 7 ...
  • Коломбиана [Расширенная версия] / Colombiana [Unrated Cut] (Оливье Мегатон, ...
  • Жизнь Пи / Life Of Pi (Энг Ли, Драма, приключения, 2012) [BDRip 720p, Профе ...
  • Смертельная гонка 3 / Death Race: Inferno [UNRATED] (Роэль Рейн, боевик, тр ...
  • Смертельная гонка 3 / Death Race: Inferno [UNRATED] (Роэль Рейн, боевик, тр ...
  • Заложница 2 [Театральная версия] / Taken 2 [Theatrical Cut] (Оливье Мегатон ...
  • Заложница 2 [Театральная версия] / Taken 2 [Theatrical Cut] (Оливье Мегатон ...
  • Коломбиана / Colombiana (Оливье Мегатон, боевик, триллер, драма, приключени ...
  • Коломбиана / Colombiana (Оливье Мегатон, боевик, триллер, драма, приключени ...
  • Коломбиана / Colombiana (Оливье Мегатон, боевик, триллер, драма, приключени ...
  • Коломбиана [Театральная версия] / Colombiana [Theatrical Cut] (Оливье Мегат ...
  • Коломбиана [Расширенная версия] / Colombiana [UNRATED] (Оливье Мегатон, Бое ...
  • Коломбиана / Colombiana [UNRATED] (Оливье Мегатон, боевик, триллер, драма, ...
  • Город воров [Театральная версия] / The Town [Theatrical cut] (Бен Аффлек, т ...
  • Профессионал / Killer Elite (Гэри МакКендри, Боевик, Триллер, Криминал, 201 ...
  • Напролом / Lockout [UNRATED] (Джеймс Мэтер, Стивен Ст. Леджер, Фантастика, ...
  • Рейд / Serbuan maut (Гарет Эванс, Боевик, триллер, криминал, 2011) [BDRip 7 ...
  • Ворон / The Raven (Джеймс МакТиг, Триллер, детектив, 2012) [BDRip 720p, Дуб ...
  • Белоснежка и охотник [Расширенная версия] / Snow White and the Huntsman [UN ...
  • Коллекционер 2 / The Collection (Маркус Данстэн, ужасы, боевик, триллер, 20 ...
  • Коломбиана / Colombiana (Оливье Мегатон, боевик, триллер, драма, приключени ...
  • Коломбиана / Colombiana (Оливье Мегатон, боевик, триллер, драма, приключени ...
  • Коломбиана / Colombiana (Оливье Мегатон, боевик, триллер, драма, криминал, ...
  • Коломбиана / Colombiana [Unrated] (Оливье Мегатон, боевик, триллер, драма, ...
  • Коломбиана / Colombiana[Unrated] (Оливье Мегатон, боевик, триллер, драма, п ...
  • Информация
    Посетители, находящиеся в группе Гости, не могут оставлять комментарии к данной публикации.