вход на сайт

Имя пользователя :
Пароль :

Восстановление пароля Регистрация
Ворон / The Raven (Джеймс МакТиг, Триллер, детектив, 2012) [BDRip 720p, Дубляж, Ukrainian, Оригинал, Sub]
Рейтинг:
(голосов: 1)



[img]{THEME}/images/logopost.png[/img]



Ворон / The Raven

Год выпуска: 2012
Страна: США, Испания, Венгрия
Производство: Intrepid Pictures
Жанр: Триллер, детектив

Режиссёр: Джеймс МакТиг
В ролях: Джон Кьюсак, Элис Ив, Люк Эванс, Брендан Глисон, Кевин МакНэлли. Оливер Джексон-Коэн, Джимми Юилл, Сэм Хэзелдайн, Пэм Феррис, Брендан Койл

Перевод: Дубляж, Ukrainian, Оригинал
Субтитры: Russian [Voronine], English [Full, SDH]

Описание: Рассказ о последних днях жизни Эдгара Аллана По. Знаменитый поэт преследует серийного убийцу, чьи преступления очень похожи на те, что описаны в его произведениях.
Качество: BDRip 720p [HDChina]
Продолжительность: 01:50:52 час.

Формат: MKV
Видео кодек: x264
Аудио кодек: AC3, DTS
Видео: 1280x534(2.40:1), 23.976fps, x264 ~4 500 kbps avg, 0.275 bit/pixel
Аудио#1: 48 kHz, AC3 Dolby Digital, 3/2 (L,C,R,l,r) + LFE ch, ~384 kbps- (Russian)
Аудио#2: 48 kHz, AC3 Dolby Digital, 3/2 (L,C,R,l,r) + LFE ch, ~384 kbps (Ukrainian)
Аудио#3: 48 kHz, DTS, 3/2 (L,C,R,l,r) + LFE ch, ~1510.00 kbps avg (English)

Дата премьеры (мир): 9 марта 2012
Дата премьеры (РФ): 12 апреля 2012, «Top Film Distribution»

MediaInfo ▼Complete name : Voron.2012.D.BDRip.720p.mkv
Format : Matroska
Format version : Version 2
File size : 5.25 GiB
Duration : 1h 50mn
Overall bit rate : 6 775 Kbps
Encoded date : UTC 2012-08-13 11:27:57
Writing application : mkvmerge v4.9.1 (Ich will) built on Jul 11 2011 23:53:15
Writing library : libebml v1.2.1 + libmatroska v1.1.1

Video
ID : 1
Format : AVC
Format/Info : Advanced Video Codec
Format profile : [email protected]
Format settings, CABAC : Yes
Format settings, ReFrames : 12 frames
Codec ID : V_MPEG4/ISO/AVC
Duration : 1h 50mn
Bit rate : 4 500 Kbps
Width : 1 280 pixels
Height : 534 pixels
Display aspect ratio : 2.40:1
Frame rate : 23.976 fps
Color space : YUV
Chroma subsampling : 4:2:0
Bit depth : 8 bits
Scan type : Progressive
Bits/(Pixel*Frame) : 0.275
Stream size : 3.38 GiB (64%)
Title : The.Raven.2012.720p.BluRay.x264.DTS-HDChina
Writing library : x264 core 125 r2208 d9d2288
Encoding settings : cabac=1 / ref=12 / deblock=1:-3:-3 / analyse=0x3:0x113 / me=umh / subme=10 / psy=1 / psy_rd=1.10:0.00 / mixed_ref=1 / me_range=32 / chroma_me=1 / trellis=2 / 8x8dct=1 / cqm=0 / deadzone=21,11 / fast_pskip=0 / chroma_qp_offset=-2 / threads=18 / lookahead_threads=3 / sliced_threads=0 / nr=0 / decimate=0 / interlaced=0 / bluray_compat=0 / constrained_intra=0 / bframes=8 / b_pyramid=2 / b_adapt=2 / b_bias=0 / direct=3 / weightb=1 / open_gop=0 / weightp=2 / keyint=240 / keyint_min=24 / scenecut=40 / intra_refresh=0 / rc_lookahead=120 / rc=2pass / mbtree=1 / bitrate=4500 / ratetol=1.0 / qcomp=0.70 / qpmin=0 / qpmax=69 / qpstep=4 / cplxblur=20.0 / qblur=0.5 / ip_ratio=1.30 / aq=1:0.90
Language : English
Default : Yes
Forced : Yes

Audio #1
ID : 2
Format : AC-3
Format/Info : Audio Coding 3
Mode extension : CM (complete main)
Codec ID : A_AC3
Duration : 1h 50mn
Bit rate mode : Constant
Bit rate : 384 Kbps
Channel(s) : 6 channels
Channel positions : Front: L C R, Side: L R, LFE
Sampling rate : 48.0 KHz
Bit depth : 16 bits
Compression mode : Lossy
Stream size : 305 MiB (6%)
Title : DD 5.1 @ 384 kbps - Dub, R5
Language : Russian
Default : Yes
Forced : Yes

Audio #2
ID : 3
Format : AC-3
Format/Info : Audio Coding 3
Mode extension : CM (complete main)
Codec ID : A_AC3
Duration : 1h 50mn
Bit rate mode : Constant
Bit rate : 384 Kbps
Channel(s) : 6 channels
Channel positions : Front: L C R, Side: L R, LFE
Sampling rate : 48.0 KHz
Bit depth : 16 bits
Compression mode : Lossy
Stream size : 305 MiB (6%)
Title : DD 5.1 @ 384 kbps - MVO, R5
Language : Ukrainian
Default : No
Forced : No

Audio #3
ID : 4
Format : DTS
Format/Info : Digital Theater Systems
Codec ID : A_DTS
Duration : 1h 50mn
Bit rate mode : Constant
Bit rate : 1 510 Kbps
Channel(s) : 6 channels
Channel positions : Front: L C R, Side: L R, LFE
Sampling rate : 48.0 KHz
Bi
36211dc99e9af4effeec9c236eb8dd3056a83900Ворон / The Raven (Джеймс МакТиг, Триллер, детектив, 2012) [BDRip 720p, Дубляж, Ukrainian, Оригинал, Sub] Ворон / The Raven (Джеймс МакТиг, Триллер, детектив, 2012) [BDRip 720p, Дубляж, Ukrainian, Оригинал, Sub] " />

Аплоадер: Админ, дата: 13-08-2012, 18:36, торрент скачан: 359 раз

Понравилась раздача? Посмотрите эти:
  • Ворон / The Raven (Джеймс МакТиг, Триллер, детектив, 2012) [BDRip 1080p, Ду ...
  • Жизнь Пи / Life Of Pi (Энг Ли, Драма, приключения, 2012) [BDRip 720p, Профе ...
  • Суррогат / The Sessions (Бен Луин, драма, 2012) [BDRip 720p, Профессиональн ...
  • Толстяк на ринге / Here Comes the Boom (Фрэнк Корачи, Боевик, комедия, 201 ...
  • Черный дрозд / Deadfall (Штефан Руцовицки, Триллер, драма, криминал, 2012) ...
  • Ворон / The Raven (Джеймс МакТиг, триллер, детектив, 2012) [HDRip-AVC, Проф ...
  • Ворон / The Raven (Джеймс МакТиг, триллер, детектив, 2012) [ВDRip-AVC, Проф ...
  • Ворон / The Raven (Джеймс МакТиг, триллер, детектив, 2012) [HDRip-AVC, Проф ...
  • Код Доступа «Кейптаун» / Safe House (Дэниэл Эспиноза, боевик, триллер, крим ...
  • Проект X: Дорвались / Project X (Нима Нуризаде, комедия, 2012) [BDRip 720p, ...
  • «Весёлые» каникулы / Get the Gringo (Адриан Грюнберг, Боевик, комедия, 2012 ...
  • Пираты! Банда неудачников / The Pirates! Band of Misfits (Питер Лорд, Джефф ...
  • Люди в черном 3 / Men in Black III (Барри Зонненфельд, Фантастика, боевик, ...
  • Красные огни / Red Lights (Родриго Кортес, Ужасы, триллер, драма, 2012) [BD ...
  • Мадагаскар 3 / Madagascar 3: Europes Most Wanted (Эрик Дарнелл, Том МакГрат ...
  • Супер Майк / Magic Mike (Стивен Содерберг, Драма, комедия, 2012) [BDRip 720 ...
  • Дружинники / The Watch (Акива Шаффер, Фантастика, комедия, 2012) [BDRip 720 ...
  • Патруль / End of Watch (Дэвид Эйр, Триллер, драма, криминал, 2012) [BDRip 7 ...
  • [Phone, iPod] Ворон / The Raven (Джеймс МакТиг, триллер, детектив, 2012) [3 ...
  • Ворон / The Raven (Джеймс МакТиг, триллер, детектив, 2012) [320x132] [DVDRi ...
  • Ворон / The Raven (Джеймс МакТиг, Триллер, детектив , 2012) [HDRip, Дубляж, ...
  • Ворон / The Raven (Джеймс МакТиг, Триллер, детектив , 2012) [HDRip, Дубляж] ...
  • Ворон / The Raven (Джеймс МакТиг, триллер, детектив, 2012) [Blu-ray Disc 1 ...
  • Ворон / The Raven (Джеймс МакТиг, Триллер, Детектив , 2012) [320x240] [HDRi ...
  • Ворон / The Raven (Джеймс МакТиг, триллер, детектив, 2012) [HDRip, Професси ...
  • Информация
    Посетители, находящиеся в группе Гости, не могут оставлять комментарии к данной публикации.