вход на сайт

Имя пользователя :
Пароль :

Восстановление пароля Регистрация
Морской бой / Battleship (Питер Берг, Фантастика, боевик, триллер, приключения, военный, 2012) [BDRip 720р, Профессиональный (одноголосый) + Оригинал + Субтитры]
Рейтинг:
(голосов: 1)



[img]{THEME}/images/logopost.png[/img]



Морской бой / Battleship
«Битва за Землю начнётся на воде»
Год выпуска: 2012
Страна: США
Производство: Battleship Delta Productions, Bluegrass Films, Film 44
Жанр: Фантастика, боевик, триллер, приключения, военный
Режиссёр: Питер Берг / Peter Berg
В ролях: Тейлор Китч, Александр Скарсгард, Рианна, Бруклин Декер, Таданобу Асано, Лиам Нисон, Джон Туи, Грегори Д. Гэдсон, Джесси Племонс, Хамиш Линклэйтер
Перевод: Профессиональный (одноголосый) [Zamez] + Оригинал
Субтитры: Русские (форсированные), русские (полные), английские
Дата премьеры (мир): 3 апреля 2012
Дата премьеры (РФ): 19 апреля 2012


Описание: Мы посылаем сигналы в космос и ждем ответа. Но уверены ли мы, что хотим его получить? Что если пришельцы потенциально опасны? В 2009 году на конференции в Вашингтоне астронавт Эдгар Митчелл, побывавший на Луне, сделал сенсационное заявление о существовании внеземной жизни. Теперь мы знаем, контакт не просто возможен, он неизбежен!
Качество: BDRip 720р
Продолжительность: 02:11:02
Формат: MKV
Видео кодек: H.264
Аудио кодек: DTS
Видео: 1280x528p (2.40:1), 23.976 fps, AVC MPEG-4 (x264), [email protected] ~4 453 kbps avg, 0.275 bits/pixel
Аудио #1: 48 kHz, DTS, 6 ch, ~1 510 kbps avg [Русский]
Аудио #2: 48 kHz, DTS, 6 ch, ~1 510 kbps avg [Оригинал]
"MediaInfo" ▼General
Unique ID : 174342034516872819438152631858876335100 (0x83290DF2AC3FF3FDB8B7A2CE18B343FC)
Complete name : F:Морской бой [2012 BDRip].mkv
Format : Matroska
Format version : Version 2
File size : 6.85 GiB
Duration : 2h 11mn
Overall bit rate : 7 470 Kbps
Movie name : Battleship (2012)
Encoded date : UTC 2012-08-03 18:10:17
Writing application : mkvmerge v3.3.0 (Language) built on Mar 24 2010 14:59:24
Writing library : libebml v0.8.0 + libmatroska v0.9.0

Video
ID : 1
Format : AVC
Format/Info : Advanced Video Codec
Format profile : [email protected]
Format settings, CABAC : Yes
Format settings, ReFrames : 5 frames
Codec ID : V_MPEG4/ISO/AVC
Duration : 2h 11mn
Bit rate : 4 453 Kbps
Width : 1 280 pixels
Height : 528 pixels
Display aspect ratio : 2.40:1
Frame rate : 23.976 fps
Color space : YUV
Chroma subsampling : 4:2:0
Bit depth : 8 bits
Scan type : Progressive
Bits/(Pixel*Frame) : 0.275
Stream size : 3.94 GiB (58%)
Title : Battleship (2012)
Writing library : x264 core 125 r2208 d9d2288
Encoding settings : cabac=1 / ref=5 / deblock=1:0:0 / analyse=0x3:0x133 / me=umh / subme=8 / psy=1 / psy_rd=1.00:0.00 / mixed_ref=1 / me_range=16 / chroma_me=1 / trellis=1 / 8x8dct=1 / cqm=0 / deadzone=21,11 / fast_pskip=0 / chroma_qp_offset=-2 / threads=18 / lookahead_threads=3 / sliced_threads=0 / nr=0 / decimate=1 / interlaced=0 / bluray_compat=0 / constrained_intra=0 / bframes=3 / b_pyramid=2 / b_adapt=1 / b_bias=0 / direct=1 / weightb=1 / open_gop=0 / weightp=2 / keyint=250 / keyint_min=23 / scenecut=40 / intra_refresh=0 / rc_lookahead=40 / rc=2pass / mbtree=1 / bitrate=4453 / ratetol=1.0 / qcomp=0.60 / qpmin=0 / qpmax=69 / qpstep=4 / cplxblur=20.0 / qblur=0.5 / ip_ratio=1.40 / aq=1:1.00
Language : English
Default : Yes
Forced : No

Audio #1
ID : 2
Format : DTS
Format/Info : Digital Theater Systems
Codec ID : A_DTS
Duration : 2h 11mn
Bit rate mode : Constant
Bit rate : 1 510 Kbps
Channel(s) : 6 channels
Channel positions : Front: L C R, Side: L R, LFE
Sampling rate : 48.0 KHz
Bit depth : 24 bits
Compression mode : Lossy
Delay relative to video : 11ms
Stream size : 1.38 GiB (20%)
Title : VoiceOver (V. Zamez)
Language : Russian
Default : Yes
Forced : No

Audio #2
ID : 3
Format : DTS
Format/Info : Digital Theater Systems
Codec ID : A_DTS
Duration : 2h 11mn
Bit rate mode : Constant
Bit rate : 1 510 Kbps
Channel(s) : 6 channels
Channel positions : Front: L C R, Side: L R, LFE
Sampling rate : 48.0 KHz
Bit depth : 24 bits
Compression mode : Lossy
Delay relative to video : 11ms
Stream size : 1.38 GiB (20%)
Title : Original
La
69404baa4a6a8fcc7dede32bb962d9cc84b0de55Морской бой / Battleship (Питер Берг, Фантастика, боевик, триллер, приключения, военный, 2012) [BDRip 720р, Профессиональный (одноголосый) + Оригинал + Субтитры] Морской бой / Battleship (Питер Берг, Фантастика, боевик, триллер, приключения, военный, 2012) [BDRip 720р, Профессиональный (одноголосый) + Оригинал + Субтитры] " />

Аплоадер: Админ, дата: 5-08-2012, 13:50, торрент скачан: 359 раз

Понравилась раздача? Посмотрите эти:
  • Паркер / Parker (Тейлор Хэкфорд, Боевик, триллер, криминал, 2013) [BDRip 7 ...
  • [Phone, iPod] Морской бой / Battleship (Питер Берг, фантастика, боевик, три ...
  • Морской бой / Battleship (Питер Берг, Фантастика, боевик, триллер, приключе ...
  • Суррогат / The Sessions (Бен Луин, драма, 2012) [BDRip 720p, Профессиональн ...
  • Морской бой / Battleship (Терри Майлз, фантастика, боевик, триллер, приключ ...
  • Морской бой / Battleship (Питер Берг, фантастика, боевик, триллер, приключе ...
  • Морской бой / Battleship (Питер Берг, Фантастика, боевик, триллер, приключе ...
  • Морской бой / Battleship (Питер Берг, фантастика, боевик, триллер, приключе ...
  • Морской бой / Battleship (Питер Берг, фантастика, боевик, триллер, приключе ...
  • Морской бой / Battleship (Питер Берг, фантастика, боевик, триллер, приключе ...
  • «Весёлые» каникулы / Get the Gringo (Адриан Грюнберг, Боевик, комедия, 2012 ...
  • Морской бой / Battleship (Питер Берг, Фантастика, боевик, триллер, 2012г.) ...
  • Ворон / The Raven (Джеймс МакТиг, Триллер, детектив, 2012) [BDRip 720p, Дуб ...
  • Морской бой / Battleship (Питер Берг, Фантастика, боевик, триллер, приключе ...
  • Морской бой / Battleship (Питер Берг, фантастика, боевик, триллер, приключе ...
  • Морской бой / Battleship (Питер Берг, Фантастика, боевик, триллер, приключе ...
  • Морской бой / Battleship (Питер Берг, Фантастика, боевик, триллер, приключе ...
  • Морской бой / Battleship (Питер Берг, Фантастика, боевик, триллер, приключе ...
  • Морской бой / Battleship (Питер Берг, Фантастика, Боевик, Триллер, 2012) [3 ...
  • Морской бой / Battleship (Питер Берг, Фантастика, Боевик, Триллер, 2012) [4 ...
  • Морской бой / Battleship (Питер Берг, Фантастика, боевик, триллер, приключе ...
  • Морской бой / Battleship (Питер Берг, Фантастика, боевик, триллер, приключе ...
  • Морской бой / Battleship (Питер Берг, Фантастика, боевик, триллер, приключе ...
  • Морской бой / Battleship (Питер Берг, фантастика, боевик, триллер, приключе ...
  • Морской бой / Battleship (Питер Берг / Peter Berg) (фантастика, боевик, три ...
  • Информация
    Посетители, находящиеся в группе Гости, не могут оставлять комментарии к данной публикации.