вход на сайт

Имя пользователя :
Пароль :

Восстановление пароля Регистрация
Живая сталь / Real Steel (Шон Леви, фантастика, боевик, семейный, 2011) [BDRip - AVC, Дублированный + Оригинал + SUB]
Рейтинг:
(голосов: 1)



[img]{THEME}/images/logopost.png[/img]



Живая сталь / Real Steel
«Чемпионами не рождаются, их собирают»

Год выпуска: 2011
Страна: США Индия
Производство: 21 Laps Entertainment, Angry Films, DreamWorks SKG, ImageMovers, Reliance Entertainment, Touchstone Pictures
Жанр: фантастика, боевик, семейный

Режиссёр: Шон Леви | Shawn Levy
В ролях: Хью Джекман, Дакота Гойо, Эванджелин Лилли, Энтони Маки, Кевин Дюран, Хоуп Дэвис, Джеймс Ребхорн, Марко Руджери, Карл Йун, Ольга Фонда и др.

Перевод: 1 - Профессиональный (полное дублирование)
2 - Оригинал (Английский)
Субтитры: Русские, Английские

Описание:
События фильма происходят в будущем, где бокс запрещен за негуманностью и заменен боями 2000-фунтовых роботов, управляемых людьми. Бывший боксер, а теперь промоутер, переметнувшийся в Робобокс, решает, что наконец нашел своего чемпиона, когда ему попадается выбракованный, но очень способный робот. Одновременно на жизненном пути героя возникает 11-летний пацан, оказывающийся его сыном. И по мере того, как машина пробивает свой путь к вершине, обретшие друг друга отец и сын учатся дружить.



Дата премьеры (мир): 6 сентября 2011
Дата премьеры (РФ): 6 октября 2011, «WDSSPR»
Релиз на DVD: 7 февраля 2012, «Уолт Дисней Компани СНГ»
Релиз на Blu-Ray: 7 февраля 2012, «Уолт Дисней Компани СНГ»

Качество: BDRip - AVC | Blu-ray Disc, MPEG4-AVC, 1080p (16:9), DTS-HD
Продолжительность: 02:06:50 час.

Формат: MKV
Видео кодек: H.264
Аудио кодек: AC3
Видео: 1280x544 (2.35:1), 23.976 fps, H.264 ~4 019 kbps avg, 0.241 bit/pixel
Аудио #1: 48 kHz, AC3, 3/2 (L,C,R,l,r) + LFE ch, ~448.00 kbps avg | Профессиональный (полное дублирование)
Аудио #2: 48 kHz, AC3, 3/2 (L,C,R,l,r) + LFE ch, ~448.00 kbps avg | Оригинал (Английский)
MediaInfo ▼General
Format : Matroska
Format version : Version 2
File size : 4.36 GiB
Duration : 2h 6mn
Overall bit rate : 4 917 Kbps
Encoded date : UTC 2012-07-26 08:18:57
Writing application : mkvmerge v5.0.1 (Es ist Sommer) built on Oct 24 2011 19:45:06
Writing library : libebml v1.2.2 + libmatroska v1.3.0
Video #1
ID : 1
Format : AVC
Format/Info : Advanced Video Codec
Format profile : [email protected]
Format settings, CABAC : Yes
Format settings, ReFrames : 8 frames
Codec ID : V_MPEG4/ISO/AVC
Duration : 2h 6mn
Bit rate : 4 019 Kbps
Width : 1 280 pixels
Height : 544 pixels
Display aspect ratio : 2.35:1
Frame rate : 23.976 fps
Color space : YUV
Chroma subsampling : 4:2:0
Bit depth : 8 bits
Scan type : Progressive
Bits/(Pixel*Frame) : 0.241
Stream size : 3.48 GiB (80%)
Writing library : x264 core 125 r2200 999b753
Encoding settings : cabac=1 / ref=8 / deblock=1:-1:-1 / analyse=0x3:0x133 / me=umh / subme=9 / psy=1 / psy_rd=1.00:0.15 / mixed_ref=1 / me_range=20 / chroma_me=1 / trellis=2 / 8x8dct=1 / cqm=0 / deadzone=21,11 / fast_pskip=1 / chroma_qp_offset=-3 / threads=12 / lookahead_threads=2 / sliced_threads=0 / nr=0 / decimate=1 / interlaced=0 / bluray_compat=0 / constrained_intra=0 / bframes=5 / b_pyramid=2 / b_adapt=2 / b_bias=0 / direct=3 / weightb=1 / open_gop=0 / weightp=2 / keyint=240 / keyint_min=23 / scenecut=40 / intra_refresh=0 / rc_lookahead=60 / rc=2pass / mbtree=1 / bitrate=4019 / ratetol=1.0 / qcomp=0.60 / qpmin=0 / qpmax=69 / qpstep=4 / cplxblur=20.0 / qblur=0.5 / ip_ratio=1.40 / aq=1:1.00
Language : English
Default : Yes
Forced : No
Audio #2
ID : 2
Format : AC-3
Format/Info : Audio Coding 3
Mode extension : CM (complete main)
Codec ID : A_AC3
Duration : 2h 6mn
Bit rate mode : Constant
Bit rate : 448 Kbps
Channel(s) : 6 channels
Channel positions : Front: L C R, Side: L R, LFE
Sampling rate : 48.0 KHz
Bit depth : 16 bits
Compression mode : Lossy
Stream size : 406 MiB (9%)
Title : Дубляж
Language : Russian
Default : Yes
Forced : No
Audio #3
ID : 3
Format : AC-3
Format/Info : Audio Coding 3
Mode extension : CM (complete main)
Codec ID : A_AC3
Duration : 2h 6mn
Bit rate mode : Constant
Bit rate : 448 Kbps
Channel(s) :
86f88711944c294e9ff36073d70f42c256c72684Живая сталь / Real Steel (Шон Леви, фантастика, боевик, семейный, 2011) [BDRip - AVC, Дублированный + Оригинал + SUB] Живая сталь / Real Steel (Шон Леви, фантастика, боевик, семейный, 2011) [BDRip - AVC, Дублированный + Оригинал + SUB] " />

Аплоадер: Админ, дата: 29-07-2012, 02:32, торрент скачан: 359 раз

Понравилась раздача? Посмотрите эти:
  • Пастырь / Priest (Скотт Чарльз Стюарт, ужасы, фантастика, боевик, триллер, ...
  • Хроника / Chronicle (Джошуа Транк, фантастика, боевик, триллер, драма, 2012 ...
  • Дети шпионов 4D / Spy Kids: All the Time in the World in 4D (Роберт Родриге ...
  • Живая сталь / Real Steel (Шон Леви, Фантастика, 2011) [HDRip - AVC, Дубляж ...
  • Живая сталь / Real Steel (Шон Леви, фантастика, боевик, семейный, 2011) [BD ...
  • Живая сталь / Real Steel (Шон Леви, фантастика, боевик, семейный, 2011) [AC ...
  • Живая сталь / Real Steel (Шон Леви, фантастика, боевик, семейный, 2011) [BD ...
  • Голодный кролик атакует / Seeking Justice (Роджер Дональдсон / Roger Donald ...
  • Живая сталь / Real Steel (Шон Леви, фантастика, боевик, семейный, 2011) [BD ...
  • Живая сталь / Real Steel (Шон Леви, фантастика, боевик, семейный, 2011) [BD ...
  • Живая сталь / Real Steel (Шон Леви, фантастика, боевик, семейный, 2011) [BD ...
  • Джон Картер / John Carter (Эндрю Стэнтон, Фантастика, 2012) [BDRip-AVC, Дуб ...
  • Трон / Tron (Стивен Лисбергер / Steven Lisberger, фантастика, боевик, прикл ...
  • Мальчики-налетчики / Takers (Джон Льюсенхоп, боевик, криминал, 2010) [BDRip ...
  • Кунг-фу Панда 2 / Kung Fu Panda 2 (Дженнифер Ю, мультфильм, боевик, комеди ...
  • Живая сталь / Real Steel (Шон Леви, фантастика, боевик, семейный, 2011) [Bl ...
  • Живая сталь / Real Steel (Шон Леви, фантастика, боевик, семейный, 2011) [BD ...
  • Живая сталь / Real Steel (Шон Леви, фантастика, боевик, семейный, 2011) [BD ...
  • Живая сталь / Real Steel (Шон Леви, фантастика, боевик, семейный, 2011) [BD ...
  • Mylene Farmer / Du Temps [2011, Pop, HDTVRip]
  • Mylene Farmer / Bleu Noir [2011, Pop, HDTVRip]
  • Живая сталь / Real Steel (Шон Леви, фантастика, боевик, семейный, 2011) [64 ...
  • [iPhone, iPod, iPad] Живая сталь / Real Steel (Шон Леви, фантастика, 2011) ...
  • Живая сталь / Real Steel (Шон Леви, фантастика, боевик, 2011) [BDRip, Дубли ...
  • Живая сталь / Real Steel (Шон Леви, фантастика, боевик, семейный, 2011) [BD ...
  • Информация
    Посетители, находящиеся в группе Гости, не могут оставлять комментарии к данной публикации.