вход на сайт

Имя пользователя :
Пароль :

Восстановление пароля Регистрация
Хищники / Predators (Нимрод Антал, Фантастика, Боевик, Триллер, Приключения, 2010) [BDRemux 1080р, Дублированный, Авторский одноголосый, Оригинал, Субтитры]
Рейтинг:
(голосов: 1)



[img]{THEME}/images/logopost.png[/img]



Хищники / Predators
«Fear is Reborn»
Год выпуска: 2010
Страна: США
Производство: 20th Century Fox Film Corporation
Жанр: Фантастика, Боевик, Триллер, Приключения
Режиссёр: Нимрод Антал
В ролях: Эдриан Броуди, Тофер Грейс, Алиси Брага, Уолтон Гоггинс, Олег Тактаров, Лоренс Фишбёрн, Дэнни Трехо, Луис Одзава Чангчьен, Махершалалхашбаз Али, Кэри Джонс
Перевод: Профессиональный (полное дублирование) (рус., укр.), авторский одноголосый (Строев), оригинал, комментарии
Субтитры: Русские, украинские, английские

Описание: Наемник Ройс невольно вынужден возглавить группу профессионалов, выполняющих загадочную миссию на неизвестной планете. За исключением опального доктора все они — хладнокровные убийцы: наемники, гангстеры, осужденные и участники отрядов смерти — людские «хищники». Но когда их начинает систематически преследовать и истреблять невообразимое чудовище, становится очевидно, что теперь они в роли своих жертв.

Дата премьеры (мир) 07 июля 2010 | Дата премьеры(РФ) 08 июля 2010

Качество: BDRemux 1080р
Продолжительность: 01:46:53

Формат: MKV
Видео кодек: AVC
Аудио кодек: AC3, DTS, DTS-HD
Видео: 1920х1080p (16:9), 31,2 Мбит/сек, 23.976 fps, Бит/Пиксели 0.628
Аудио:
Аудио 1: Русский, DTS, 755 kbps, 6 каналов, 24 bit, (L, C, R, l, r) + LFE - Дублированный
Аудио 2: Украинский, AC-3, 448 kbps, 6 каналов, 16 bit, (L, C, R, l, r) + LFE - Дублированный
Аудио 3: Русский, DTS-HD MA, 5.1, 48 kHz, 4033 kbps, 24 bit, 6 каналов, (DTS Core: 5.1, 48kHz, 1509 kbps, 24 bit, 6 каналов) - (L, C, R, l, r) + LFE - Одноголосый (Денис Строев) Внимание: (есть мат)
Аудио 4: Английский, DTS-HD MA, 5.1, 48 kHz, 4025 kbps, 24 bit, 6 каналов, (DTS Core: 5.1, 48 kHz, 1509 kbps, 24 bit, 6 каналов) - (L, C, R, l, r) + LFE - Оригинал
Аудио 5: Английский, AC-3, 224 kbps, 2 канала, 16 bit, (L, R) - Commentary
MediaInfo ▼
Формат : Matroska
Версия формата : Version 2
Размер файла : 27,4 Гбайт
Продолжительность : 1 ч. 46 м.
Режим общего битрейта : Переменный
Общий поток : 36,7 Мбит/сек
Название фильма : Predators.2010.Blu-ray.1080p.AVC
Дата кодирования : UTC 2010-10-09 11:26:37
Программа кодирования : mkvmerge v3.4.0 (Rapunzel) built on May 15 2010 09:38:20
Библиотека кодирования : libebml v0.8.0 + libmatroska v0.9.0

Видео
Идентификатор : 1
Формат : AVC
Формат/Информация : Advanced Video Codec
Профиль формата : [email protected]
Параметр CABAC формата : Да
Параметр ReFrames формата : 4 кадра
Режим смешивания : Container [email protected]
Идентификатор кодека : V_MPEG4/ISO/AVC
Продолжительность : 1 ч. 46 м.
Вид битрейта : Переменный
Битрейт : 31,2 Мбит/сек
Максимальный битрейт : 35,0 Мбит/сек
Ширина : 1920 пикселей
Высота : 1080 пикселей
Соотношение сторон : 16:9
Частота кадров : 23,976 кадра/сек
Цветовое пространство : YUV
Субдискретизация насыщенности : 4:2:0
Битовая глубина : 8 бит
Тип развёртки : Прогрессивная
Бит/(Пиксели*Кадры) : 0.628
Размер потока : 23,3 Гбайт (85%)
Заголовок : 27439 kbps
Язык : English
Default : Нет
Forced : Нет
Основные цвета : BT.709-5, BT.1361, IEC 61966-2-4, SMPTE RP177
Характеристики трансфера : BT.709-5, BT.1361
Коэффициенты матрицы : BT.709-5, BT.1361, IEC 61966-2-4 709, SMPTE RP177

Аудио #1
Идентификатор : 2
Формат : DTS
Формат/Информация : Digital Theater Systems
Идентификатор кодека : A_DTS
Продолжительность : 1 ч. 46 м.
Вид битрейта : Постоянный
Битрейт : 755 Кбит/сек
Каналы : 6 каналов
Расположение каналов : Front: L C R, Side: L R, LFE
Частота : 48,0 КГц
Битовая глубина : 24 бит
Метод сжатия : С потерями
Размер потока : 577 Мбайт (2%)
Заголовок : Dub R5
Язык : Russian
Default : Да
Forced : Нет

Аудио #2
Идентификатор : 3
Формат : AC-3
Формат/Информация : Audio Coding 3
Расширение режима : CM (complete main)
Идентификатор кодека : A_AC3
Продолжительность : 1 ч. 46 м.
Вид битрейта : Постоянный
Битрейт : 384 Кбит/сек
Каналы : 6 каналов
Расположение каналов : Front: L C R, Side: L R,
4961895db6cfcd0d6f6c6aae7a374e21150a536aХищники / Predators (Нимрод Антал, Фантастика, Боевик, Триллер, Приключения, 2010) [BDRemux 1080р, Дублированный, Авторский одноголосый, Оригинал, Субтитры] Хищники / Predators (Нимрод Антал, Фантастика, Боевик, Триллер, Приключения, 2010) [BDRemux 1080р, Дублированный, Авторский одноголосый, Оригинал, Субтитры] " />

Аплоадер: Админ, дата: 23-07-2012, 22:50, торрент скачан: 359 раз

Понравилась раздача? Посмотрите эти:
  • Хищники / Predators ( Нимрод Антал / Nimrod Antal, фантастика, боевик, трил ...
  • Хищники / Predators (Нимрод Антал / Nimrod Antal, фантастика, боевик, три ...
  • Хищники / Predators (Нимрод Антал, фантастика, боевик, триллер, приключения ...
  • Хищники / Predators ( Нимрод Антал , фантастика, боевик, триллер, приключен ...
  • Хищники / Predators (Нимрод Антал, фантастика, боевик, триллер, приключения ...
  • Запрещенный прием / Sucker Punch (Зак Снайдер, Фэнтези, 2011) [BDRemux 108 ...
  • Скрат: Потерянный орех / Scrat: Gone Nutty (Carlos Saldanha, мультфильм, к ...
  • Скарат: Не время для орехов / Scrat: No Time For Nuts (Крис Рено, Майк Тёр ...
  • Сид, инструкция по выживанию / Surviving Sid (Гален Т. Чу, Карен Дишер, мул ...
  • Эволюция Борна / The Bourne Legacy (Тони Гилрой, боевик, триллер, детектив, ...
  • Хищники / Predators (Нимрод Антал / Nimrod Antal, фантастика, боевик, трилл ...
  • Хищники / Predators ( Нимрод Антал / Nimrod Antal, фантастика, боевик, трил ...
  • Хищники / Predators (Нимрод Антал, фантастика, боевик, триллер, приключения ...
  • Хищники / Predators (Нимрод Антал, фантастика, боевик, триллер, приключения ...
  • Хищники / Predators (Нимрод Антал, Фантастика, боевик, триллер, приключения ...
  • Хищники / Predators (Нимрод Антал, фантастика, боевик, триллер, приключения ...
  • Хищники / Predators (Нимрод Антал / Nimrod Antal, фантастика, боевик, трилл ...
  • Хищники / Predators (Нимрод Антал, фантастика, боевик, триллер, приключения ...
  • Хищники / Predators (Нимрод Антал / Nimrod Antal, фантастика, боевик, трилл ...
  • Хищники / Predators (Нимрод Антал / Nimród Antal) [2010, США, Фантастика, Б ...
  • Информация
    Посетители, находящиеся в группе Гости, не могут оставлять комментарии к данной публикации.