вход на сайт

Имя пользователя :
Пароль :

Восстановление пароля Регистрация
Бульвар спасения / Salvation Boulevard (Джордж Рэтлифф, Боевик, триллер, драма, комедия , 2011) [BDRip 720p, Профессиональный (многоголосый, закадровый) + Оригинал + Субтитры Русские]
Рейтинг:
(голосов: 1)



[img]{THEME}/images/logopost.png[/img]



Бульвар спасения / Salvation Boulevard

Год выпуска: 2011
Страна: США
Выпущено: Mandalay Independent Pictures,10th Hole Productions
Жанр: Боевик, триллер, драма, комедия

Режиссёр: Джордж Рэтлифф
В главных ролях: Дженнифер Коннелли, Мариса Томей, Изабелль Фюрман, Пирс Броснан, Кьяран Хайндс, Эд Харрис, Грег Киннер, Джим Гэффиган, Ховард Хессеман, Юл Васкез

Перевод: Профессиональный (многоголосый, закадровый) + Оригинал
Субтитры: русские [Вшитые]

О фильме: Действие ленты разворачивается в управляемым супер-религиями будущем, где обратившийся в христианство дурачок спасается бегством от фундаменталистов, защищающих авторитет своего пастора..




Качество: BDRip 720p
Продолжительность: 01:36:05 час
"Media Info" ▼Формат : Matroska
Версия формата : Version 1
Размер файла : 5,77 Гбайт
Продолжительность : 1 ч. 36 м.
Общий поток : 8601 Кбит/сек
Название фильма : Бульвар спасения / Salvation Boulevard (2011) BDRip 720p
Дата кодирования : UTC 2012-07-18 12:26:34
Программа кодирования : mkvmerge v2.3.0 (Freak U) built on Sep 8 2008 18:32:16
Библиотека кодирования : libebml v0.7.7 + libmatroska v0.8.1

Видео
Идентификатор : 1
Формат : AVC
Формат/Информация : Advanced Video Codec
Профиль формата : [email protected]
Параметр CABAC формата : Да
Параметр ReFrames формата : 9 кадров
Идентификатор кодека : V_MPEG4/ISO/AVC
Продолжительность : 1 ч. 36 м.
Битрейт : 6640 Кбит/сек
Ширина : 1280 пикселей
Высота : 690 пикселей
Соотношение сторон : 1,855
Частота кадров : 24,000 кадра/сек
Цветовое пространство : YUV
Субдискретизация насыщенности : 4:2:0
Битовая глубина : 8 бит
Тип развёртки : Прогрессивная
Бит/(Пиксели*Кадры) : 0.313
Размер потока : 4,34 Гбайт (75%)
Библиотека кодирования : x264 core 116 r2074 2641b9e

Настройки программы : cabac=1 / ref=9 / deblock=1:-3:-3 / analyse=0x3:0x133 / me=umh / subme=10 / psy=1 / psy_rd=1.00:0.00 / mixed_ref=1 / me_range=32 / chroma_me=1 / trellis=2 / 8x8dct=1 / cqm=0 / deadzone=21,11 / fast_pskip=1 / chroma_qp_offset=-2 / threads=12 / sliced_threads=0 / nr=0 / decimate=0 / interlaced=0 / bluray_compat=0 / constrained_intra=0 / bframes=6 / b_pyramid=2 / b_adapt=2 / b_bias=0 / direct=3 / weightb=1 / open_gop=0 / weightp=2 / keyint=250 / keyint_min=24 / scenecut=40 / intra_refresh=0 / rc_lookahead=60 / rc=2pass / mbtree=1 / bitrate=6640 / ratetol=1.0 / qcomp=0.60 / qpmin=0 / qpmax=69 / qpstep=4 / cplxblur=20.0 / qblur=0.5 / vbv_maxrate=50000 / vbv_bufsize=50000 / nal_hrd=none / ip_ratio=1.50 / aq=1:1.00
Язык : English

Аудио #1
Идентификатор : 2
Формат : AC-3
Формат/Информация : Audio Coding 3
Расширение режима : CM (complete main)
Идентификатор кодека : A_AC3
Продолжительность : 1 ч. 36 м.
Вид битрейта : Постоянный
Битрейт : 448 Кбит/сек
Каналы : 6 каналов
Расположение каналов : Front: L C R, Side: L R, LFE
Частота : 48,0 КГц
Битовая глубина : 16 бит
Метод сжатия : С потерями
Размер потока : 308 Мбайт (5%)
Язык : Russian

Аудио #2
Идентификатор : 3
Формат : DTS
Формат/Информация : Digital Theater Systems
Идентификатор кодека : A_DTS
Продолжительность : 1 ч. 36 м.
Вид битрейта : Постоянный
Битрейт : 1510 Кбит/сек
Каналы : 6 каналов
Расположение каналов : Front: L C R, Side: L R, LFE
Частота : 48,0 КГц
Битовая глубина : 24 бит
Метод сжатия : С потерями
Размер потока : 1,01 Гбайт (18%)
Язык : English

Текст #1
Идентификатор : 4
Формат : UTF-8
Идентификатор кодека : S_TEXT/UTF8
Идентификатор кодека/Информация : UTF-8 Plain Text
Язык : Russian
Формат: MKV
Видео кодек: MPEG-4
Аудио кодек: AC3, DTS
Видео: 1280x690, (1,855), MPEG-4, 24,000 fps, 6640 kbps, 0.313 bits/pixel
Аудио #1: 48 kHz, AC3, 6(channles), 448 kbps
Аудио #2: 48 kHz, DTS, 6(channles), 1536 kbps



Наши рипы / Набор в РГ / Стол заказов РГ / Стол заказов по РИПам



dfad3b9128e1a809f3fe78bfc08c4a1971aca194Бульвар спасения / Salvation Boulevard (Джордж Рэтлифф, Боевик, триллер, драма, комедия , 2011) [BDRip 720p, Профессиональный (многоголосый, закадровый) + Оригинал + Субтитры Русские] Бульвар спасения / Salvation Boulevard (Джордж Рэтлифф, Боевик, триллер, драма, комедия , 2011) [BDRip 720p, Профессиональный (многоголосый, закадровый) + Оригинал + Субтитры Русские] " />

Аплоадер: Админ, дата: 22-07-2012, 02:48, торрент скачан: 359 раз

Понравилась раздача? Посмотрите эти:
  • Бунраку / Bunraku (Гай Моше, боевик, триллер, драма, 2010) [BDRip-AVC, Проф ...
  • Погнали! / Getaway (Кортни Соломон, боевик, криминал, 2013) [BDRip 1080p, П ...
  • Погнали! / Getaway (Кортни Соломон, боевик, криминал, 2013) [BDRip-AVC, Про ...
  • Башня / The Tower (Чи-хун Ким, драма, 2012) [BDRip-AVC, Любительский (двухг ...
  • Стукач / Snitch (Рик Роман Во, Триллер, драма, 2013) [BDRip-AVC, Дубляж, Ор ...
  • Стукач / Snitch (Рик Роман Во, Триллер, драма, криминал, 2013) [BDRip 720p, ...
  • Летучий отряд Скотланд-Ярда / The Sweeney (Ник Лав, Боевик, драма, криминал ...
  • Порочные игры / Stoker (Пак Чхан Ук, Триллер, драма, детектив, 2013) [BDRip ...
  • Порочные игры / Stoker (Пак Чхан Ук, Триллер, драма, детектив, 2013) [BDRip ...
  • Бульвар спасения / Salvation Boulevard (Джордж Рэтлифф, боевик, триллер, др ...
  • Крученый мяч / Trouble with the Curve (Роберт Лоренц, Драма, 2012) [BDRip-A ...
  • Суррогат / The Sessions (Бен Луин, Драма, 2012) [BDRip-AVC, Профессиональны ...
  • Ошибка телохранителя / The Girl from the Naked Eye (Дэвид Рен, боевик, трил ...
  • Профессионал / Killer Elite (Гэри МакКендри, боевик, 2011) [BDRip-AVC, Проф ...
  • Образец 47 / Marvel One-Shot: Item 47 (Луис Д’Эспозито, короткометражка, фа ...
  • Эд Вуд / Ed Wood (Тим Бёртон, драма, комедия, биография, 1994) [BDRip-AVC, ...
  • Немыслимое / Unthinkable (Грегор Джордан, триллер, драма, 2009) [BDRip 720p ...
  • Жестокие игры / Cruel Intentions (Роджер Камбл, мелодрама, драма, 1999) [BD ...
  • Заражение / Contagion (Стивен Содерберг, Фантастика, 2011) [BDRip 1080p, Пр ...
  • Переростки / The Inbetweeners (Бен Палмер / Ben Palmer, комедия, 2011) [BDR ...
  • Бедная богатая девочка / Young Adult (Джейсон Райтман, драма, комедия, 2011 ...
  • Бессонная ночь / Nuit blanche (Фредерик Жарден, Боевик, 2011) [BDRip 720p, ...
  • Павшая империя / Hirokin (Алехо Мо-Сан, фантастика, боевик, драма, приключе ...
  • Бульвар спасения / Salvation Boulevard(Джордж Рэтлифф, Боевик, триллер, дра ...
  • Бульвар спасения / Salvation Boulevard(Джордж Рэтлифф, Боевик, триллер, дра ...
  • Информация
    Посетители, находящиеся в группе Гости, не могут оставлять комментарии к данной публикации.