вход на сайт

Имя пользователя :
Пароль :

Восстановление пароля Регистрация
Три метра над уровнем неба / Tres metros sobre el cielo (Фернандо Гонзалез Молина, Драма, мелодрама, 2011) [BDRip-AVC, Дубляж + Профессиональный (многоголосый, закадровый) + Оригинал + Sub(rus,eng)]
Рейтинг:
(голосов: 1)



[img]{THEME}/images/logopost.png[/img]



Три метра над уровнем неба / Tres metros sobre el cielo
«Когда любовь уносит в облака...»

Год выпуска: 2010
Страна: Испания
Производство: Antena 3 Films
Жанр: Драма, мелодрама

Режиссёр: Фернандо Гонзалез Молина
В ролях: Марио Касас, Мария Вальверде, Альваро Сервантес, Марина Салас, Луис Фернандез, Андреа Дуро, Нереа Камачо, Диего Мартин, Кристина Плазас, Джорди Бош

Перевод: Дубляж + Профессиональный (многоголосый закадровый) + Оригинал
Субтитры: русские, английские

Описание: История двух молодых людей, которые принадлежат к разным мирам. Баби ― богатая девушка, которая отображает доброту и невинность. Аче — мятежный мальчик, импульсивный, бессознательный, склонный к риску и опасности. Это маловероятно, практически невозможно, но их встреча неизбежна, и в этом неистовом путешествии между ними возникает первая большая любовь.





Дата премьеры (мир): 3 декабря 2010
Дата премьеры (РФ): 3 ноября 2011

Качество: BDRip-AVC
Продолжительность: 02:02:46

Формат: MKV
Видео кодек: X264
Аудио кодек: DTS/AC3
Формат видео: 1 280x546 (2.35:1), 24.000 fps, ~ 5 506 Kbps, 0.328 bit/pixel
Формат aудио1: [RUS] 48.0 KHz, AC-3, 6 channels (Front: L C R, Side: L R, LFE), 384 kbps avg |Дубляж|
Формат аудио2: [RUS] 48.0 KHz, AC-3, 2 channels (Front:L R), 192 kbps avg |MVO|
Формат аудио3: [Spanish] 48.0 KHz, DTS, 6 channels (Front: L C R, Side: L R, LFE), 1510 kbps avg |Оригинал|
MediaInfo ▼TextFormat : Matroska
Format version : Version 2
File size : 6.67 GiB
Duration : 2h 3mn
Overall bit rate : 7 746 Kbps
Encoded date : UTC 2011-12-27 22:15:18
Writing application : mkvmerge v4.9.1 (Ich will) сборка от Jul 11 2011 23:53:15
Writing library : libebml v1.2.1 + libmatroska v1.1.1

Video
ID : 1
Format : AVC
Format/Info : Advanced Video Codec
Format profile : [email protected]
Format settings, CABAC : Yes
Format settings, ReFrames : 11 frames
Codec ID : V_MPEG4/ISO/AVC
Duration : 2h 3mn
Bit rate : 5 506 Kbps
Width : 1 280 pixels
Height : 546 pixels
Display aspect ratio : 2.35:1
Frame rate : 24.000 fps
Color space : YUV
Chroma subsampling : 4:2:0
Bit depth : 8 bits
Scan type : Progressive
Bits/(Pixel*Frame) : 0.328
Stream size : 4.74 GiB (71%)
Title : 1280х546 | 5568 kbps | 24.0 fps | 0.332 bitpixel | [email protected] - Rip by LexxBlack
Writing library : x264 core 116 r2044 392e762
Encoding settings : cabac=1 / ref=11 / deblock=1:-3:-3 / analyse=0x3:0x133 / me=umh / subme=11 / psy=1 / psy_rd=1.10:0.00 / mixed_ref=1 / me_range=32 / chroma_me=1 / trellis=2 / 8x8dct=1 / cqm=0 / deadzone=21,11 / fast_pskip=0 / chroma_qp_offset=-3 / threads=12 / sliced_threads=0 / nr=0 / decimate=1 / interlaced=0 / bluray_compat=0 / constrained_intra=0 / bframes=10 / b_pyramid=2 / b_adapt=2 / b_bias=0 / direct=3 / weightb=1 / open_gop=0 / weightp=2 / keyint=250 / keyint_min=24 / scenecut=40 / intra_refresh=0 / rc_lookahead=60 / rc=crf / mbtree=1 / crf=17.4 / qcomp=0.65 / qpmin=0 / qpmax=69 / qpstep=4 / vbv_maxrate=50000 / vbv_bufsize=62500 / crf_max=0.0 / nal_hrd=none / ip_ratio=1.40 / aq=1:1.00
Language : Spanish
Default : Yes
Forced : No

Audio #1
ID : 2
Format : AC-3
Format/Info : Audio Coding 3
Mode extension : CM (complete main)
Codec ID : A_AC3
Duration : 2h 3mn
Bit rate mode : Constant
Bit rate : 384 Kbps
Channel(s) : 6 channels
Channel positions : Front: L C R, Side: L R, LFE
Sampling rate : 48.0 KHz
Bit depth : 16 bits
Compression mode : Lossy
Stream size : 338 MiB (5%)
Title : AC3 | 6 ch | 48 kHz | 384 kbps | 16 bit - DUB
Language : Russian
Default : Yes
Forced : No

Audio #2
ID : 3
Format : AC-3
Format/Info : Audio Coding 3
Mode extension : CM (complete main)
Codec ID : A_AC3
Duration : 2h 3mn
Bit rate mode : Constant
Bit rate : 192 Kbps
Channel(s) : 2 channels
Channel positions : Front: L R
Sampling rate : 48.0 KHz
Bit depth : 16 bits
Compression mode : Lossy
Stream size : 169 MiB (2%)
Title : AC3 | 2 ch | 48 kHz | 192 kbps | 16 bit - MVO
Language : Russian
Default :
86ff6d1026359e1e3d9c3ab83f415a2ea9189fe1Три метра над уровнем неба / Tres metros sobre el cielo (Фернандо Гонзалез Молина, Драма, мелодрама, 2011) [BDRip-AVC, Дубляж + Профессиональный (многоголосый, закадровый) + Оригинал + Sub(rus,eng)] Три метра над уровнем неба / Tres metros sobre el cielo (Фернандо Гонзалез Молина, Драма, мелодрама, 2011) [BDRip-AVC, Дубляж + Профессиональный (многоголосый, закадровый) + Оригинал + Sub(rus,eng)] " />

Аплоадер: Админ, дата: 6-06-2012, 04:48, торрент скачан: 359 раз

Понравилась раздача? Посмотрите эти:
  • Три метра над уровнем неба / Tres metros sobre el cielo (Фернандо Гонзалез ...
  • Три метра над уровнем неба / Tres metros sobre el cielo (Фернандо Гонзалез ...
  • Три метра над уровнем неба / Tres metros sobre el cielo (Фернандо Гонзалез ...
  • Три метра над уровнем неба / Tres metros sobre el cielo (Фернандо Гонзалез ...
  • Три метра над уровнем неба: Я тебя хочу / Tengo ganas de ti / I Want You (Ф ...
  • Три метра над уровнем неба: Я тебя хочу / Tengo ganas de ti / I Want You (Ф ...
  • Три метра над уровнем неба / Tres metros sobre el cielo (Фернандо Гонзалез ...
  • Три метра над уровнем неба / Tres metros sobre el cielo (Фернандо Гонзалез ...
  • Три метра над уровнем неба / Tres metros sobre el cielo (Фернандо Гонзалез ...
  • Три метра над уровнем неба: Я тебя хочу / Tengo ganas de ti / I Want You (Ф ...
  • (2010, сборник) VA / Три метра над уровнем неба / Tres metros sobre el ciel ...
  • Три метра над уровнем неба / Tres metros sobre el cielo (Фернандо Гонзалез ...
  • Три метра над уровнем неба / Tres metros sobre el cielo (Фернандо Гонзалез ...
  • Три метра над уровнем неба / Tres metros sobre el cielo (Фернандо Гонзалез ...
  • Три метра над уровнем неба / Tres metros sobre el cielo (Фернандо Гонзалез ...
  • Три метра над уровнем неба / Tres metros sobre el ciel (Фернандо Гонзалез М ...
  • Три метра над уровнем неба / Tres metros sobre el cielo (Фернандо Гонзалез ...
  • [iPhone] Три метра над уровнем неба / Tres metros sobre el cielo (Фернандо ...
  • Три метра над уровнем неба / Tres metros sobre el cielo (Фернандо Гонзалез ...
  • Три метра над уровнем неба / Tres metros sobre el cielo (Фернандо Гонзалез ...
  • Три метра над уровнем неба / Tres metros sobre el cielo (Фернандо Гонзалез ...
  • Три метра над уровнем неба / Tres metros sobre el cielo (Фернандо Гонзалез ...
  • Три метра над уровнем неба: Я тебя хочу / Tengo ganas de ti / I Want You (Ф ...
  • Три метра над уровнем неба: Я тебя хочу / Tengo ganas de ti / I Want You (Ф ...
  • Три метра над уровнем неба: Я тебя хочу / Tengo ganas de ti / I Want You (Ф ...
  • Информация
    Посетители, находящиеся в группе Гости, не могут оставлять комментарии к данной публикации.