вход на сайт

Имя пользователя :
Пароль :

Восстановление пароля Регистрация
Легенда о пианисте [Полная версия] / La Leggenda Del Pianista SullOceano [Full Version] (Джузеппе Торнаторе, драма, мелодрама, музыка , 1998) [BDRip 1080p, Профессиональный (многоголосый закадровый) + Оригинал + Sub]
Рейтинг:
(голосов: 1)



[img]{THEME}/images/logopost.png[/img]



Легенда о пианисте [Полная версия] / La Leggenda Del Pianista SullOceano [Full Version]
«An epic story of a man who could do anything... except be ordinary.»

Год выпуска: 1998
Страна: Италия
Производство: Medusa Produzione, Sciarlo
Жанр: драма, мелодрама, музыка

Режиссёр: Джузеппе Торнаторе
В ролях: Тим Рот, Прюитт Тэйлор Винс, Билл Нанн, Кларенс Уильямс III, Мелани Тьерри, Габриэле Лавиа, Питер Вон, Ниал О’Брайэн, Альберто Васкес, Луиджи Де Люка

Перевод: Профессиональный (многоголосый закадровый) + Оригинал
Субтитры: русские, английские

Описание: Началось все с того, что в первый день 20-го столетия на пароходе «Вирджиния» в коробке из-под лимонов был найден младенец. Мальчик вырос и провел всю свою жизнь на громадном океанском лайнере, курсирующем между Америкой и Европой, ни разу не сойдя на берег.

Загадочным образом научившись играть на рояле, Дэнни Будманн Т. Д. Лемон 1900-й стал настоящим виртуозом и развлекал публику, играя в ресторанном оркестре. С ним связаны потрясающие истории, а его жизнь превратилась в красивую легенду…





Дата премьеры (мир): 28 октября 1998
Дата премьеры (РФ): 19 июля 2001, «West»

Качество: BDRip 1080p
Продолжительность: 02:49:44

Формат: MKV
Видео кодек: X264
Аудио кодек: DTS
Видео: 1920x816 (2.35:1), 23.976 fps, ~10.3 Mbps, 0.274 bit/pixel
Аудио1: [RUS] 48.0 KHz, 6 channels (Front: L C R, Side: L R, LFE), 1510 kbps avg |MVO|
Аудио2: [ENG] 48.0 KHz, 6 channels (Front: L C R, Side: L R, LFE), 1510 kbps avg |Оригинал|
MediaInfo ▼TextFormat : Matroska
Format version : Version 2
File size : 15.8 GiB
Duration : 2h 49mn
Overall bit rate : 13.3 Mbps
Encoded date : UTC 2011-03-20 06:44:18
Writing application : mkvmerge v3.4.0 (Rapunzel) сборка от May 15 2010 09:38:20
Writing library : libebml v0.8.0 + libmatroska v0.9.0

Video
ID : 1
Format : AVC
Format/Info : Advanced Video Codec
Format profile : [email protected]
Format settings, CABAC : Yes
Format settings, ReFrames : 5 frames
Codec ID : V_MPEG4/ISO/AVC
Duration : 2h 49mn
Bit rate : 10.3 Mbps
Width : 1 920 pixels
Height : 816 pixels
Display aspect ratio : 2.35:1
Frame rate : 23.976 fps
Color space : YUV
Chroma subsampling : 4:2:0
Bit depth : 8 bits
Scan type : Progressive
Bits/(Pixel*Frame) : 0.274
Stream size : 11.9 GiB (75%)
Title : The.Legend.of.1900.1998
Writing library : x264 core 107 r1766 f9f0035
Encoding settings : cabac=1 / ref=5 / deblock=1:-3:-3 / analyse=0x3:0x113 / me=umh / subme=10 / psy=1 / psy_rd=1.05:0.10 / mixed_ref=1 / me_range=48 / chroma_me=1 / trellis=2 / 8x8dct=1 / cqm=2 / deadzone=21,11 / fast_pskip=0 / chroma_qp_offset=-2 / threads=12 / sliced_threads=0 / nr=0 / decimate=1 / interlaced=0 / constrained_intra=0 / bframes=6 / b_pyramid=2 / b_adapt=2 / b_bias=0 / direct=3 / weightb=1 / open_gop=0 / weightp=2 / keyint=250 / keyint_min=23 / scenecut=40 / intra_refresh=0 / rc_lookahead=50 / rc=2pass / mbtree=1 / bitrate=10290 / ratetol=1.0 / qcomp=0.70 / qpmin=10 / qpmax=51 / qpstep=4 / cplxblur=20.0 / qblur=0.5 / vbv_maxrate=40000 / vbv_bufsize=30000 / ip_ratio=1.40 / aq=1:0.90 / nal_hrd=none
Language : English
Default : No
Forced : No

Audio #1
ID : 2
Format : DTS
Format/Info : Digital Theater Systems
Codec ID : A_DTS
Duration : 2h 49mn
Bit rate mode : Constant
Bit rate : 1 510 Kbps
Channel(s) : 6 channels
Channel positions : Front: L C R, Side: L R, LFE
Sampling rate : 48.0 KHz
Bit depth : 16 bits
Compression mode : Lossy
Stream size : 1.79 GiB (11%)
Language : Russian
Default : No
Forced : No

Audio #2
ID : 3
Format : DTS
Format/Info : Digital Theater Systems
Codec ID : A_DTS
Duration : 2h 49mn
Bit rate mode : Constant
Bit rate : 1 510 Kbps
Channel(s) : 6 channels
Channel positions : Front: L C R, Side: L R, LFE
Sampling rate : 48.0 KHz
Bit depth : 24 bits
Compression mode : Lossy
Stream size : 1.79 GiB (11%)
Title : DTS-CORE 1536K
Language : English
Default : Yes
Forced : No

Text #1
ID : 4
Format : UTF-8
Codec ID : S_TEXT/UTF
8a9a0078e8257dceacb6c88aafd6ea60e8e42951Легенда о пианисте [Полная версия] / La Leggenda Del Pianista SullOceano [Full Version] (Джузеппе Торнаторе, драма, мелодрама, музыка , 1998) [BDRip 1080p, Профессиональный (многоголосый закадровый) + Оригинал + Sub] Легенда о пианисте [Полная версия] / La Leggenda Del Pianista SullOceano [Full Version] (Джузеппе Торнаторе, драма, мелодрама, музыка , 1998) [BDRip 1080p, Профессиональный (многоголосый закадровый) + Оригинал + Sub] " />

Аплоадер: Админ, дата: 27-05-2012, 15:53, торрент скачан: 359 раз

Понравилась раздача? Посмотрите эти:
  • Легенда о пианисте [Полная версия] / La Leggenda Del Pianista SullOceano [F ...
  • Жизнь Пи / Life Of Pi (Энг Ли, Драма, приключения, 2012) [BDRip 1080p, Проф ...
  • Легенда о пианисте [Полная версия] / La leggenda del pianista sulloceano / ...
  • Суррогат / The Sessions (Бен Луин, драма, 2012) [BDRip 720p, Профессиональн ...
  • Анна Каренина / Anna Karenina (Джо Райт, Драма, мелодрама, 2012) [BDRip 108 ...
  • Легенда о пианисте / The Legend of 1900 (Тим Рот,Джузеппе Торнаторе,фэнтези ...
  • Легенда о пианисте / The Legend of 1900 (Тим Рот,Джузеппе Торнаторе,фэнтези ...
  • Легенда О Пианисте [Полная версия] / La Leggenda Del Pianista SullOceano [F ...
  • Поворот не туда 4 / Wrong Turn 4 (Деклан О’Брайэн, ужасы, боевик, детектив, ...
  • Легенда о пианисте [Полная версия] / La Leggenda Del Pianista SullOceano [F ...
  • Легенда о Пианисте / La leggenda del pianista sulloceano (Джузеппе Торнатор ...
  • Легенда о Пианисте / The Legend of 1900 / Leggenda del pianista sulloceano, ...
  • Домашняя работа / The Art of Getting By (Гэвин Вьесен, драма, мелодрама, 20 ...
  • Офицеры (Владимир Роговой, драма, мелодрама, 1971) [BDRip 1080p, (Цветная в ...
  • Три метра над уровнем неба / Tres metros sobre el cielo (Фернандо Гонзалез ...
  • Красные огни / Red Lights (Родриго Кортес, Ужасы, триллер, драма, 2012) [BD ...
  • На Дороге / On The Road (Уолтер Саллес, Драма, приключения, 2012) [BDRip 10 ...
  • Люди как мы / People Like Us (Алекс Куртцман, Драма, 2012) [BDRip 1080p, Пр ...
  • Слова / The Words (Брайан Клагман, Ли Стернтал, Драма, мелодрама, 2012) [BD ...
  • Mylene Farmer / Du Temps [2011, Pop, HDTVRip]
  • Информация
    Посетители, находящиеся в группе Гости, не могут оставлять комментарии к данной публикации.