вход на сайт

Имя пользователя :
Пароль :

Восстановление пароля Регистрация
Пол: Секретный материальчик / Расширенная версия / Paul (Грег Моттола, фантастика, комедия, 2011) [BDRemux 1080р, полное дублирование + Авторский (одноголосый, закадровый) Юрий Сербин + 3х(любительский одноголосый + Оригинал + Sub]
Рейтинг:
(голосов: 1)



[img]{THEME}/images/logopost.png[/img]



Пол: Секретный материальчик | Расширенная версия / Paul | Extended Cut
«Кто готов к тесному контакту?»

Год выпуска: 2010
Страна: США Великобритания
Производство: Relativity Media & Studio Canal
Жанр: фантастика, комедия, приключения

Режиссёр: Грег Моттола
В ролях: Саймон Пегг (Graeme Willy), Сергей Бурунов, Ник Фрост (Clive Gollings), Михаил Белякович, Джереми Оуэн (Sword Vendor), Джефри Тэмбор (Adam Shadowchild), Владимир Герасимов, Дэвид Хаус (Security Guard), Дженнифер Грэйнджер (Adam Shadowchild Fan), Нельсон Асценсио (Jorge), Бобби Ли (Valet), Джейн Линч (Pat Stevens)

Перевод: Профессиональный (полное дублирование) + Авторский (одноголосый, закадровый) Юрий Сербин + любительский одноголосый den904 + любительский одноголосый ren313 + любительский одноголосый doctor joker + оригинал
Субтитры: Русские,Английские UTF8

Описание: Два английских гика отправляются на одно из самых значимых фанатских событий в области фантастики — конвент ComicCon в Америке. По пути, неподалёку от известной Зоны 51, они встречают сбежавшего инопланетянина по имени Пол, который просит помочь ему добраться домой. Пытаясь спастись от правительственных агентов, герои случайно похищают женщину и натыкаются на обкуренную свидетельницу аварийной посадки Пола на Землю.




Дата премьеры (мир): 14 февраля 2011
Дата премьеры (РФ): 24 марта 2011, «UPI»

Качество: BDRemux 1080р
Продолжительность: 01:49:18

"MediaInfo" ▼General
Unique ID : 246974587899935379267239076386846058999 (0xB9CD934FA3241FB6B035BF5BB350A9F7)
Complete name : J:Paul.2011.1080p.Bluray.EXTENDED.AVC.Remux.mkv
Format : Matroska
Format version : Version 2
File size : 27.4 GiB
Duration : 1h 49mn
Overall bit rate : 35.9 Mbps
Movie name : Paul.2011.1080p.Bluray.EXTENDED.AVC.Remux
Encoded date : UTC 2011-12-14 11:43:47
Writing application : mkvmerge v4.9.1 (Ich will) сборка от Jul 11 2011 23:53:15
Writing library : libebml v1.2.1 + libmatroska v1.1.1

Video
ID : 1
Format : AVC
Format/Info : Advanced Video Codec
Format profile : [email protected]
Format settings, CABAC : Yes
Format settings, ReFrames : 4 frames
Codec ID : V_MPEG4/ISO/AVC
Duration : 1h 49mn
Bit rate mode : Variable
Bit rate : 26.8 Mbps
Maximum bit rate : 34.0 Mbps
Width : 1 920 pixels
Height : 1 080 pixels
Display aspect ratio : 16:9
Frame rate : 23.976 fps
Color space : YUV
Chroma subsampling : 4:2:0
Bit depth : 8 bits
Scan type : Progressive
Bits/(Pixel*Frame) : 0.539
Stream size : 20.5 GiB (75%)
Title : uralmix
Color primaries : BT.709-5, BT.1361, IEC 61966-2-4, SMPTE RP177
Transfer characteristics : BT.709-5, BT.1361
Matrix coefficients : BT.709-5, BT.1361, IEC 61966-2-4 709, SMPTE RP177

Audio #1
ID : 2
Format : AC-3
Format/Info : Audio Coding 3
Mode extension : CM (complete main)
Codec ID : A_AC3
Duration : 1h 49mn
Bit rate mode : Constant
Bit rate : 448 Kbps
Channel(s) : 6 channels
Channel positions : Front: L C R, Side: L R, LFE
Sampling rate : 48.0 KHz
Bit depth : 16 bits
Compression mode : Lossy
Stream size : 350 MiB (1%)
Title : дубляж
Language : Russian

Audio #2
ID : 3
Format : DTS
Format/Info : Digital Theater Systems
Format profile : MA / Core
Codec ID : A_DTS
Duration : 1h 49mn
Bit rate mode : Variable
Bit rate : 1 816 Kbps / 1 510 Kbps
Channel(s) : 6 channels
Channel positions : Front: L C R, Side: L R, LFE
Sampling rate : 48.0 KHz
Bit depth : 24 bits
Compression mode : Lossless / Lossy
Title : Юрий Сербин
Language : Russian

Audio #3
ID : 4
Format : DTS
Format/Info : Digital Theater Systems
Codec ID : A_DTS
Duration : 1h 49mn
Bit rate mode : Constant
Bit rate : 1 510 Kbps
Channel(s) : 6 channels
Channel positions : Front: L C R, Side: L R, LFE
Sampling rate : 48.0 KHz
Bit depth : 24 bits
Compression mode : Lossy
Stream size : 1.15 GiB
3543253425081933eac6d759d8628e3cd23dcef6Пол: Секретный материальчик / Расширенная версия / Paul (Грег Моттола, фантастика, комедия, 2011) [BDRemux 1080р, полное дублирование + Авторский (одноголосый, закадровый) Юрий Сербин + 3х(любительский одноголосый + Оригинал + Sub] Пол: Секретный материальчик / Расширенная версия / Paul (Грег Моттола, фантастика, комедия, 2011) [BDRemux 1080р, полное дублирование + Авторский (одноголосый, закадровый) Юрий Сербин + 3х(любительский одноголосый + Оригинал + Sub] " />

Аплоадер: Админ, дата: 23-05-2012, 21:29, торрент скачан: 359 раз

Понравилась раздача? Посмотрите эти:
  • Богатенький Ричи / Ri¢hie Ri¢h / Richie Rich (Дональд Питри, комедия, семей ...
  • Мужество / Wymyk (Грег Зглински, драма, 2011) [DVDRip, Любительский (одного ...
  • 23:59 / 23:59 (Гилберт Чан, Ужасы, 2011) [HDRip, Любительский (одноголосый ...
  • Нубы / Noobz (Блейк Фриман, Комедия, 2012) [BDRemux 1080p, Профессиональный ...
  • Пол: Секретный материальчик / Paul [Театральная версия / Theatrical Cut] (Г ...
  • Пол: Секретный материальчик / Paul [Театральная версия / Theatrical Cut] (Г ...
  • Пол: Секретный материальчик / Paul (Грег Моттола, фантастика, комедия, прик ...
  • Пол: Секретный материальчик / Paul (Грег Моттола, фантастика, комедия, 2011 ...
  • О чём говорят мужчины (Дмитрий Дьяченко, комедия, 2010) [BDRemux 1080p, не ...
  • Старая добрая оргия / A Good Old Fashioned Orgy (Алекс Грегори, комедия, 20 ...
  • Иван Царевич и Серый Волк (Владимир Торопчин, мультфильм, семейный, 2011) [ ...
  • Дым / Smoke (Уэйн Ван, Пол Остер, Драма, Комедия, 1995) [BDRip 1080р, Профе ...
  • Неудержимые / The Expendables (Сильвестр Сталлоне, боевик, триллер, приключ ...
  • Стыд / Shame (Стив МакКуин, драма, 2011) [BDRemux 1080p, Дублированный + Од ...
  • Притворись моей женой / Just go with it (Деннис Дуган, мелодрама, комедия, ...
  • Рапунцель: Счастлива навсегда / Tangled Ever After ( Нэйтан Грено, Байрон Х ...
  • Бульвар страха / Rosewood Lane (Виктор Сальва, Ужасы, триллер, 2011) [BD-Re ...
  • Призрак в школе / Haunted High (Джеффри Скотт Ландо, ужасы, фантастика, 201 ...
  • Пол: Секретный материальчик / Paul [Театральная версия / Theatrical Cut] (Г ...
  • Пол: Секретный материальчик / Paul [Театральная версия / Theatrical Cut] (Г ...
  • Пол: Секретный материальчик / Paul (Грег Моттола, фантастика, комедия, прик ...
  • Пол: Секретный материальчик / Paul [Театральная версия / Theatrical Cut] (Г ...
  • Пол: Секретный материальчик [Расширенная версия] / Paul [Extended Cut] (Гре ...
  • Телескоп Хаббл / IMAX - Hubble (Тони Майерс, документальный, 2010) [BDRemux ...
  • Пол: Секретный материальчик / Paul (Грег Моттола, Фантастика, Комедия, Прик ...
  • Информация
    Посетители, находящиеся в группе Гости, не могут оставлять комментарии к данной публикации.