вход на сайт

Имя пользователя :
Пароль :

Восстановление пароля Регистрация
Приемыш / Foster (Джонатан Ньюман, Драма, Комедия, Семейный, 2011) [BDRip 720p, Одноголосый закадровый + Оригинал + Sub]
Рейтинг:
(голосов: 1)



[img]{THEME}/images/logopost.png[/img]



Приемыш / Foster
Год выпуска: 2011
Страна: Великобритания
Производство: Bent Nail Productions, Ingenious Film Partners, Kintop Pictures, Reliance Big Pictures, Serendipity Productions, Starlight Films
Жанр: Драма, Комедия, Семейный

Режиссер: Джонатан Ньюман
В ролях: Тони Коллет, Иоан Граффад, Морис Коул, Ричард Грант, Анна Рейд, Хэйли Миллс, Барри Джексон, Дейзи Бьюмонт, Тим Бекмен
Перевод: Одноголосый закадровый [Вячеслав Прошин] + Оригинал
Субтитры: Русские, Английские [SRT]Описание: После гибели родного сына супружеская пара намеревается усыновить ребенка. И в один прекрасный день на пороге их дома объявляется мальчик.. IMDB: 6.00 (231)
КиноПоиск: 7.386 (208) Дата премьеры (мир): 10 февраля 2011
Качество: BDRip/720p
Продолжительность: 1:30:17Формат: MKV
Видео кодек: AVC
Аудио кодек: DTS
Видео: 1280x720 (16:9) / 23.976 fps / x264 / 4689 kbps / 0.212 bit/pix
Аудио №1: Английский / DTS / 5.1 / 48 kHz / 1510 kbps || Оригинал
Аудио №2: Русский / DTS / 5.1 / 48 kHz / 1510 kbps || Авторский (одноголосый закадровый) [Вячеслав Прошин]
"Media Info:" ▼TextGeneral
Unique ID : 223748533772530130129654342618395719453 (0xA854666E4C7B45F18FEAE4A99B84371D)
Complete name : /Torrents/home/alexone/data/Foster_720p.mkv
Format : Matroska
Format version : Version 2
File size : 4.96 GiB
Duration : 1h 30mn
Overall bit rate : 7 865 Kbps
Encoded date : UTC 2012-05-03 22:25:06
Writing application : mkvmerge v5.5.0 (Healer) built on Apr 6 2012 21:43:24
Writing library : libebml v1.2.3 + libmatroska v1.3.0

Video
ID : 1
Format : AVC
Format/Info : Advanced Video Codec
Format profile : [email protected]
Format settings, CABAC : Yes
Format settings, ReFrames : 9 frames
Codec ID : V_MPEG4/ISO/AVC
Duration : 1h 30mn
Bit rate : 4 689 Kbps
Width : 1 280 pixels
Height : 720 pixels
Display aspect ratio : 16:9
Frame rate : 23.976 fps
Color space : YUV
Chroma subsampling : 4:2:0
Bit depth : 8 bits
Scan type : Progressive
Bits/(Pixel*Frame) : 0.212
Stream size : 2.96 GiB (60%)
Title : Foster (2011)
Writing library : x264 core 124 r2197kMod 69a0443
Encoding settings : cabac=1 / ref=9 / deblock=1:-3:-3 / analyse=0x3:0x133 / me=umh / subme=11 / psy=1 / fade_compensate=0.00 / psy_rd=1.20:0.25 / mixed_ref=1 / me_range=32 / chroma_me=1 / trellis=2 / 8x8dct=1 / cqm=0 / deadzone=21,11 / fast_pskip=0 / chroma_qp_offset=-4 / threads=3 / sliced_threads=0 / nr=0 / decimate=1 / interlaced=0 / bluray_compat=0 / constrained_intra=0 / bframes=16 / b_pyramid=2 / b_adapt=2 / b_bias=0 / direct=3 / weightb=1 / open_gop=0 / weightp=2 / keyint=250 / keyint_min=23 / scenecut=40 / intra_refresh=0 / rc=crf / mbtree=0 / crf=18.0000 / qcomp=0.60 / qpmin=0 / qpmax=69 / qpstep=4 / ip_ratio=1.40 / pb_ratio=1.30 / aq=3:1.05
Language : English
Default : Yes
Forced : No

Audio #1
ID : 2
Format : DTS
Format/Info : Digital Theater Systems
Codec ID : A_DTS
Duration : 1h 30mn
Bit rate mode : Constant
Bit rate : 1 510 Kbps
Channel(s) : 6 channels
Channel positions : Front: L C R, Side: L R, LFE
Sampling rate : 48.0 KHz
Bit depth : 16 bits
Compression mode : Lossy
Stream size : 975 MiB (19%)
Title : DTS / 5.1 / 48 kHz / 1509 kbps | Вячеслав Прошин
Language : Russian
Default : Yes
Forced : No

Audio #2
ID : 3
Format : DTS
Format/Info : Digital Theater Systems
Codec ID : A_DTS
Duration : 1h 30mn
Bit rate mode : Constant
Bit rate : 1 510 Kbps
Channel(s) : 6 channels
Channel positions : Front: L C R, Side: L R, LFE
Sampling rate : 48.0 KHz
Bit depth : 16 bits
Compression mode : Lossy
Stream size : 975
1d76aba2921e7f13bdcb382c8f27ca4e8d771d6dПриемыш / Foster (Джонатан Ньюман, Драма, Комедия, Семейный, 2011) [BDRip 720p, Одноголосый закадровый + Оригинал + Sub] Приемыш / Foster (Джонатан Ньюман, Драма, Комедия, Семейный, 2011) [BDRip 720p, Одноголосый закадровый + Оригинал + Sub] " />

Аплоадер: Админ, дата: 22-05-2012, 13:43, торрент скачан: 359 раз

Понравилась раздача? Посмотрите эти:
  • Погнали! / Getaway (Кортни Соломон, боевик, криминал, 2013) [BDRip 720p, Пр ...
  • 42 / 42 (Брайан Хелгеленд, Драма, биография, спорт, 2013) [BDRip 720p, Проф ...
  • Жизнь Пи / Life Of Pi (Энг Ли, Драма, приключения, 2012) [BDRip 720p, Профе ...
  • Жизнь Пи / Life Of Pi (Энг Ли, Драма, приключения, 2012) [BDRip 1080p, Проф ...
  • Суррогат / The Sessions (Бен Луин, драма, 2012) [BDRip 720p, Профессиональн ...
  • Весенние надежды / Hope Springs (Дэвид Фрэнкел, Драма, мелодрама, комедия, ...
  • Толстяк на ринге / Here Comes the Boom (Фрэнк Корачи, Боевик, комедия, 201 ...
  • Конец света / Fin (Хорхе Торрегросса, триллер, 2012) [BDRip 720p, Профессио ...
  • Зубная фея 2 / Tooth Fairy 2 (Алекс Замм, комедия, семейный, 2012) [BDRip 7 ...
  • Мальчишник 2: Из Вегаса в Бангкок / The Hangover Part II (Тодд Филлипс, ком ...
  • Рыжий пес / Red Dog (Крив Стендерс, драма, комедия, семейный, 2011) [BDRip ...
  • Домашняя работа / The Art of Getting By (Гэвин Вьесен, драма, мелодрама, 20 ...
  • Значит, война / This Means War (МакДжи, боевик, мелодрама, комедия, 2012) [ ...
  • Закон доблести / Act of Valor (Майк МакКой, Скотт Во, боевик, триллер, прик ...
  • Проект X: Дорвались / Project X (Нима Нуризаде, комедия, 2012) [BDRip 720p, ...
  • Джок / Jock (Дункан МакНили, мультфильм, комедия, приключения, семейный, 20 ...
  • «Весёлые» каникулы / Get the Gringo (Адриан Грюнберг, Боевик, комедия, 2012 ...
  • Ворон / The Raven (Джеймс МакТиг, Триллер, детектив, 2012) [BDRip 720p, Дуб ...
  • BBC: Большой Барьерный риф (с 1 по 3 из 3) / Great Barrier Reef (Джеймс Бр ...
  • Судный день / The Day (Дуглас Арниокоски, Фантастика, триллер, драма, 2011) ...
  • Дневник слабака 3 / Diary of a Wimpy Kid: Dog Days (Дэвид Бауэрс, комедия, ...
  • Слова / The Words [EXTENDED] (Ли Стернтал, Драма, мелодрама, 2012) [BDRip 7 ...
  • The Australian Pink Floyd Show / Live At Hammersmith Apollo 2011 [2012, Roc ...
  • Mylene Farmer / Du Temps [2011, Pop, HDTVRip]
  • Mylene Farmer / Bleu Noir [2011, Pop, HDTVRip]
  • Информация
    Посетители, находящиеся в группе Гости, не могут оставлять комментарии к данной публикации.