вход на сайт

Имя пользователя :
Пароль :

Восстановление пароля Регистрация
Девичник в Вегасе / Bridesmaids (Пол Фейг / Paul Feig, комедия, 2011) [BDRip 720p, Дублированный + Оригинал + Sub]
Рейтинг:
(голосов: 1)



[img]{THEME}/images/logopost.png[/img]



Девичник в Вегасе / Bridesmaids
«Отжиг по полной - мальчики отдыхают!»

Год выпуска: 2011
Страна: США
Производство: Apatow Productions, Relativity Media, Universal Pictures
Жанр: мелодрама, комедия

Режиссёр: Пол Файг
В ролях: Кристен Уиг, Майя Рудольф, Роуз Бирн, Венди МакЛендон-Кови, Элли Кемпер, Мелисса МакКарти, Криc О’Дауд, Терри Крюс, Джессика Ст. Клэр

Перевод: Дублированный + Оригинал
Субтитры: Русские (форсированные), Английские (полные) (*.srt)

Описание: У Энни в личной жизни полный бардак, и ей совсем не до веселья. Но девушке придется забыть о своих проблемах: ведь вскоре ей предстоит отправиться на девичник к лучшей подруге.

Девочки оторвутся так, как мальчикам и не снилось…
"Знаете ли вы, что..." ▼Среди кандидатов на место режиссёра картины числились Грег Моттола, Тодд Филлипс, Дэвид Гордон Грин, Дэвид Уэйн и Джейк Каздан. Однако все они были заняты в других проектах. Имевшаяся также единственная кандидатура женщины-режиссёра Энн Флетчер была отклонена продюсерами.

Последний фильм американской актрисы Джилл Клейбёрг, скончавшейся вскоре после окончания съёмок в ноябре 2010 года.


Качество: BDRip 720p
Продолжительность: 02:04:58 час.

Формат: MKV
Видео кодек: AVC
Аудио кодек: DTS
Видео: 1280x534 (2.40:1), 23.976 fps, AVC ~5 768 kbps avg, 0.352 bit/pixel
Аудио: 48 kHz, DTS, 3/2 (L,C,R,l,r) + LFE ch, ~755 kbps| Russian (DUB)
Аудио: 48 kHz, DTS, 3/2 (L,C,R,l,r) + LFE ch, ~1510 kbps| English

Премьера (мир): 28 апреля 2011
Премьера (РФ): 23 июня 2011, «UPI»
Mediainfo ▼General
Unique ID : 217786124858783152770145407020860185218 (0xA3D814F99C5E6A87BB627A6FEB001A82)
Complete name : C: orrBridesmaidsBridesmaids.2011.D.BDRip.720p.mkv
Format : Matroska
Format version : Version 2
File size : 7.15 GiB
Duration : 2h 4mn
Overall bit rate : 8 195 Kbps
Movie name : Девичник в Вегасе / Bridesmaids (2011) .....:::UNIONGANG:::.....
Encoded date : UTC 2011-11-08 22:17:30
Writing application : mkvmerge v5.0.1 (Es ist Sommer) built on Oct 9 2011 11:55:43
Writing library : libebml v1.2.2 + libmatroska v1.3.0
Video
ID : 1
Format : AVC
Format/Info : Advanced Video Codec
Format profile : [email protected]
Format settings, CABAC : Yes
Format settings, ReFrames : 12 frames
Codec ID : V_MPEG4/ISO/AVC
Duration : 2h 4mn
Bit rate : 5 768 Kbps
Width : 1 280 pixels
Height : 534 pixels
Display aspect ratio : 2.40:1
Frame rate : 23.976 fps
Color space : YUV
Chroma subsampling : 4:2:0
Bit depth : 8 bits
Scan type : Progressive
Bits/(Pixel*Frame) : 0.352
Stream size : 5.03 GiB (70%)
Title : Bridesmaids.2011.Theatrical.Cut.720p.BluRay.x264-OPTiMUS
Writing library : x264 core 119 r2106 07efeb4
Encoding settings : cabac=1 / ref=12 / deblock=1:-3:-3 / analyse=0x3:0x133 / me=umh / subme=10 / psy=1 / psy_rd=1.05:0.05 / mixed_ref=1 / me_range=32 / chroma_me=1 / trellis=2 / 8x8dct=1 / cqm=0 / deadzone=21,11 / fast_pskip=0 / chroma_qp_offset=-3 / threads=12 / sliced_threads=0 / nr=0 / decimate=0 / interlaced=0 / bluray_compat=0 / constrained_intra=0 / bframes=8 / b_pyramid=2 / b_adapt=2 / b_bias=0 / direct=3 / weightb=1 / open_gop=0 / weightp=2 / keyint=250 / keyint_min=23 / scenecut=40 / intra_refresh=0 / rc=crf / mbtree=0 / crf=17.0 / qcomp=0.60 / qpmin=0 / qpmax=69 / qpstep=4 / ip_ratio=1.40 / pb_ratio=1.30 / aq=1:0.70
Language : English
Audio #1
ID : 2
Format : DTS
Format/Info : Digital Theater Systems
Codec ID : A_DTS
Duration : 2h 4mn
Bit rate mode : Constant
Bit rate : 755 Kbps
Channel(s) : 6 channels
Channel positions : Front: L C R, Side: L R, LFE
Sampling rate : 48.0 KHz
Bit depth : 24 bits
Compression mode : Lossy
Stream size : 674 MiB (9%)
Title : DTS 5.1 @ 755 kb/s [Russian DUB]
Language : Russian
Audio #2
ID : 3
Format : DTS
Format/Info : Digital Theater Systems
Codec ID : A_DTS
Duration : 2h 4mn
Bit rate mode : Constant
Bit rate : 1 510 Kbps
Cha
57f7d5881d587e75defca0e22a1437fafbf00dbcДевичник в Вегасе / Bridesmaids (Пол Фейг / Paul Feig, комедия, 2011) [BDRip 720p, Дублированный + Оригинал + Sub] Девичник в Вегасе / Bridesmaids (Пол Фейг / Paul Feig, комедия, 2011) [BDRip 720p, Дублированный + Оригинал + Sub] " />

Аплоадер: Админ, дата: 21-05-2012, 11:34, торрент скачан: 359 раз

Понравилась раздача? Посмотрите эти:
  • Девичник в Вегасе / Bridesmaids (Пол Файг, Комедия, 2011) [BDRip - AVC, Ду ...
  • Мальчишник 2: Из Вегаса в Бангкок / The Hangover Part II (Тодд Филлипс, ком ...
  • Девичник в Вегасе / Bridesmaids (Пол Фейг / Paul Feig, комедия, 2011) [BDRi ...
  • Исходный код / Source Code (Дункан Джонс, фантастика, боевик, триллер, 2011 ...
  • Секс по дружбе / Friends with Benefits (Уилл Глак, драма, мелодрама, комеди ...
  • Мальчишник 2: Из Вегаса в Бангкок / The Hangover Part II (Тодд Филлипс, ком ...
  • 11-11-11 / 11-11-11 (Даррен Линн Боусман, ужасы, триллер, 2011) [BDRip 720p ...
  • Несносные Боссы [Театральная версия] / Horrible Bosses [Theatrical Cut] (Се ...
  • Несносные Боссы [Театральная версия] / Horrible Bosses [Theatrical Cut] (Се ...
  • Приемыш / Foster (Джонатан Ньюман, Драма, Комедия, Семейный, 2011) [BDRip 7 ...
  • Джок / Jock (Дункан МакНили, мультфильм, комедия, приключения, семейный, 20 ...
  • Мачо и ботан / 21 Jump Street (Фил Лорд, Крис Миллер, боевик, комедия, 2012 ...
  • Девичник в Вегасе / Bridesmaids (Пол Фейг, комедия, 2011) [HDRip, Дублирова ...
  • Девичник в Вегасе / Bridesmaids (Пол Фейг, Комедия, 2011) [480 x 208] [HDRi ...
  • Девичник в Вегасе / Bridesmaids (Пол Фейг, комедия, 2011) [HDRip, Дублирова ...
  • Девичник в Вегасе / Bridesmaids (Пол Фейг / Paul Feig, комедия, 2011) [BDRi ...
  • Девичник в Вегасе / Bridesmaids (Пол Фейг / Paul Feig, комедия, 2011) [BDRi ...
  • Девичник в Вегасе / Bridesmaids (Пол Фейг / Paul Feig, комедия, 2011) [HDRi ...
  • Девичник в Вегасе / Bridesmaids (Пол Фейг / Paul Feig, комедия, 2011) [HDRi ...
  • [iPhone, iPod]Девичник в Вегасе / Bridesmaids (Пол Фейг / Paul Feig) [2011, ...
  • Информация
    Посетители, находящиеся в группе Гости, не могут оставлять комментарии к данной публикации.