вход на сайт

Имя пользователя :
Пароль :

Восстановление пароля Регистрация
Несносные Боссы [Театральная версия] / Horrible Bosses [Theatrical Cut] (Сет Гордон / Seth Gordon, комедия, криминал, 2011) [BDRip 720p, Дублированный + Дублированный (UKR) + Оригинал + Sub]
Рейтинг:
(голосов: 1)



[img]{THEME}/images/logopost.png[/img]



Несносные боссы | Театральная версия / Horrible Bosses | Theatrical Cut
«Мечтаешь прибить своего босса?!»

Год выпуска: 2011
Страна: США
Производство: New Line Cinemа, Rat Entertainment
Жанр: комедия, криминал

Режиссёр: Сет Гордон
В ролях: Джейсон Бейтман, Чарли Дэй, Джейсон Судейкис, Дженнифер Энистон, Колин Фаррелл, Кевин Спейси, Джейми Фокс, П.Дж. Бирн, Стив Виб, Линдсэй Слоун

Перевод: Дублированный + Дублированный (UKR) + Оригинал
Субтитры: Русский (forced/full), украинский, английский

Описание: Единственное, что могло бы сделать трудовые будни Ника, Курта и Дэйла чуть более выносимыми — возможность стереть в порошок их несносное начальство.

Уволиться с работы — не вариант, поэтому, изрядно выпив и воспользовавшись советами бывшего преступника, трое друзей разрабатывают витиеватый и, казалось бы, безупречный план, как помочь друг другу навсегда избавиться от осточертевших работодателей.

Проблема лишь в том, что даже самые продуманные планы безупречны ровно настолько, насколько умны разработавшие их люди.



Релиз от:

Качество: BDRip 720p
Продолжительность: 01:37:43 час.

Формат: MKV
Видео кодек: AVC
Аудио кодек: AC3, DTS
Видео: 1280x534 (2.40:1), 23.976 fps, AVC ~6 445 kbps, 0.393 bit/pix
Аудио: 48 kHz, AC3, 6 ch, ~640.00 kbps avg | Russian (DUB)
Аудио: 48 kHz, AC3, 6 ch, ~384.00 kbps avg | Russian (DUB) (UKR)
Аудио: 48 kHz, DTS, 6 ch, ~1510.00 kbps avg | English

Премьера (мир): 8 июля 2011
Премьера (РФ): 4 августа 2011, «Каро-Премьер»
MediaInfo ▼General
Unique ID : 210739447876865832977994006267627023363 (0x9E8AF0F9E300BA2B9770667F140FAC03)
Complete name : C:Userswtf1DesktopHorrible.Bosses.2011.720p.BluRay.Rus.Ukr.Eng.HDCLUB.mkv
Format : Matroska
Format version : Version 2
File size : 6.25 GiB
Duration : 1h 37mn
Overall bit rate : 9 161 Kbps
Movie name : Horrible Bosses (2011) - Release for HDCLUB
Encoded date : UTC 2011-11-03 14:04:27
Writing application : mkvmerge v4.9.1 (Ich will) сборка от Jul 11 2011 23:53:15
Writing library : libebml v1.2.1 + libmatroska v1.1.1
Video
ID : 1
Format : AVC
Format/Info : Advanced Video Codec
Format profile : [email protected]
Format settings, CABAC : Yes
Format settings, ReFrames : 10 frames
Codec ID : V_MPEG4/ISO/AVC
Duration : 1h 37mn
Bit rate : 6 445 Kbps
Width : 1 280 pixels
Height : 534 pixels
Display aspect ratio : 2.40:1
Frame rate : 23.976 fps
Color space : YUV
Chroma subsampling : 4:2:0
Bit depth : 8 bits
Scan type : Progressive
Bits/(Pixel*Frame) : 0.393
Stream size : 4.40 GiB (70%)
Title : Horrible Bosses (2011) - Release for HDCLUB
Writing library : x264 core 119 r2106 07efeb4
Encoding settings : cabac=1 / ref=10 / deblock=1:-3:-3 / analyse=0x3:0x133 / me=umh / subme=11 / psy=1 / psy_rd=1.00:0.00 / mixed_ref=1 / me_range=64 / chroma_me=1 / trellis=2 / 8x8dct=1 / cqm=0 / deadzone=21,11 / fast_pskip=0 / chroma_qp_offset=-2 / threads=9 / sliced_threads=0 / nr=0 / decimate=0 / interlaced=0 / bluray_compat=0 / constrained_intra=0 / bframes=10 / b_pyramid=2 / b_adapt=2 / b_bias=0 / direct=3 / weightb=1 / open_gop=0 / weightp=2 / keyint=250 / keyint_min=23 / scenecut=40 / intra_refresh=0 / rc_lookahead=40 / rc=crf / mbtree=0 / crf=17.4 / qcomp=0.60 / qpmin=0 / qpmax=69 / qpstep=4 / vbv_maxrate=50000 / vbv_bufsize=62500 / crf_max=0.0 / nal_hrd=none / ip_ratio=1.40 / pb_ratio=1.30 / aq=1:0.80
Language : English
Audio #1
ID : 2
Format : AC-3
Format/Info : Audio Coding 3
Mode extension : CM (complete main)
Codec ID : A_AC3
Duration : 1h 37mn
Bit rate mode : Constant
Bit rate : 640 Kbps
Channel(s) : 6 channels
Channel positions : Front: L C R, Side: L R, LFE
Sampling rate : 48.0 KHz
Bit depth : 16 bits
Compression mode : Lossy
Stream size : 447 MiB (7%)
Title : Дубляж, Blu-Ray
Language : Russian
Audio #2
ID : 3
Format : AC-3
Format/Info : Audio Coding 3
Mode extension : CM (complete main)
Codec ID : A_AC3
Duration : 1h 37mn
Bit rate mode : Constant
Bit rate : 384 Kbps
Channel(s) : 6 channels
Channel positions : Front
c855870b206b08cd8e5de54135896ae2d4a3a3d0Несносные Боссы [Театральная версия] / Horrible Bosses [Theatrical Cut] (Сет Гордон / Seth Gordon, комедия, криминал, 2011) [BDRip 720p, Дублированный + Дублированный (UKR) + Оригинал + Sub] Несносные Боссы [Театральная версия] / Horrible Bosses [Theatrical Cut] (Сет Гордон / Seth Gordon, комедия, криминал, 2011) [BDRip 720p, Дублированный + Дублированный (UKR) + Оригинал + Sub] " />

Аплоадер: Админ, дата: 21-05-2012, 10:33, торрент скачан: 359 раз

Понравилась раздача? Посмотрите эти:
  • Поймай толстуху, если сможешь [Театральная версия] / Identity Thief [Theatr ...
  • Железный Кулак [Театральная версия] / The Man with the Iron Fists [Theatric ...
  • Ужасные боссы /Несносные боссы / Horrible Bosses [EXTENDED] (Сет Гордон, ко ...
  • Несносные боссы / Horrible Bosses [EXTENDED] (Сет Гордон,комедия, криминал, ...
  • Несносные боссы / Horrible Bosses (Extended) (Сет Гордон, комедия, криминал ...
  • Несносные Боссы [Театральная версия] / Horrible Bosses [Theatrical Cut] (Се ...
  • Несносные боссы / Horrible Bosses (Сет Гордон, Комедия, криминал, 2011) [BD ...
  • Несносные Боссы [Театральная версия] / Horrible Bosses [Theatrical Cut] (Се ...
  • Несносные боссы / Horrible Bosses [EXTENDED] (Сет Гордон, комедия, криминал ...
  • Несносные боссы (Расширенная версия) / Horrible Bosses (Extended Cut) (Сет ...
  • Несносные боссы / Horrible Bosses [EXTENDED] (Сет Гордон, комедия, криминал ...
  • Несносные Боссы [Театральная версия] / Horrible Bosses [Theatrical Cut] (Се ...
  • Несносные боссы / Horrible Bosses (Сет Гордон, комедия, криминал, 2011) [DV ...
  • Ужасные боссы / Несносные боссы / Horrible Bosses / [Расширенная версия] (С ...
  • Несносные боссы / Horrible Bosses [EXTENDED] (Сет Гордон, комедия, криминал ...
  • Ужасные боссы /Несносные боссы / Horrible Bosses [Extended Cut] (Сет Гордон ...
  • Несносные боссы / Horrible Bosses (Сет Гордон, комедия, криминал, 2011) [BD ...
  • Несносные боссы / Horrible Bosses (Сет Гордон, Комедия, криминал, 2011) [HD ...
  • [iPhone, iPod, iPad] Несносные боссы / Horrible Bosses (Сет Гордон, комедия ...
  • [iPhone, iPod]Несносные боссы / Horrible Bosses (Сет Гордон / Seth Gordon) ...
  • Информация
    Посетители, находящиеся в группе Гости, не могут оставлять комментарии к данной публикации.