вход на сайт

Имя пользователя :
Пароль :

Восстановление пароля Регистрация
Аноним / Anonymous (Роланд Эммерих / Roland Emmerich, триллер, драма, 2011) [BDRemux 1080p, Профессиональный (полное дублирование), Украинский, Оригинал, комментарии + суб]
Рейтинг:
(голосов: 1)



[img]{THEME}/images/logopost.png[/img]



Аноним / Anonymous
«Что скрывает имя Шекспир?»

Год выпуска: 2011
Страна: Германия Великобритания
Производство: Centropolis Entertainment, Columbia Pictures, elativity Media, Studio Babelsberg Motion Pictures GmbH
Жанр: триллер, драма

Режиссёр: Роланд Эммерих / Roland Emmerich
В ролях: Рис Иванс, Ванесса Редгрейв, Себастьян Фернандес-Арместо, Рейф Сполл, Дэвид Тьюлис, Эдвард Хогг, Ксавьер Сэмюэл, Сэм Рейд, Джейми Кэмпбелл Бауэр, Джоэли Ричардсон...

Перевод: Профессиональный (полное дублирование), Украинский, Оригинал, комментарии
Субтитры: Russian (Forced), Russian (Blu-ray), Russian (Voronine), Ukrainian (Forced), English (Full, SDH)

Описание: Фильм даст совершенно неожиданный ответ на извечный вопрос: а кем же «был или не был» Шекспир, и кто на самом деле скрывается за этим всемирно известным именем великого человека?Дата премьеры (мир): 11 сентября 2011
Дата премьеры (РФ): 17 ноября 2011, «WDSSPR»
Качество: BDRemux 1080p
Продолжительность: 02:10:05

Формат: MKV
Видео кодек: x264
Аудио кодек: DTS, AC-3
Видео: 1920x1080 (16:9), 23.976 fps, x264~27,5 Mb/s avg, 0.553 bit/pixel
Аудио1: Russian: DTS-HD MA 5.1, 48 kHz, 4072 kbps avg (DTS Core: 5.1 / 48 kHz / 1509 kbps) |Дубляж, Blu-ray|
Аудио2: Ukrainian: AC3 5.1, 48 kHz, 640 kbps avg |Дубляж, Blu-ray|
Аудио3: English: DTS-HD MA 5.1, 48 kHz, 2236 kbps avg (DTS Core: 5.1 / 48 kHz / 1509 kbps)
Аудио4: English: AC3 2.0, 48 kHz, 192 kbps avg |Commentary|

MediaInfo ▼TextОбщее
Уникальный идентификатор : 192563675546544467857284565931772658079 (0x90DE6A36782521109A8569173A20C19F)
Полное имя : E:Anonymous.2011.BDRemux.mkv
Формат : Matroska
Версия формата : Version 2
Размер файла : 29,1 Гбайт
Продолжительность : 2 ч. 9 м.
Режим общего битрейта : Переменный
Общий поток : 32,1 Мбит/сек
Название фильма : Аноним
Дата кодирования : UTC 2012-05-12 04:43:17
Программа кодирования : mkvmerge v5.1.0 (And so it goes) built on Nov 28 2011 23:58:28
Библиотека кодирования : libebml v1.2.3 + libmatroska v1.3.0

Видео
Идентификатор : 1
Формат : AVC
Формат/Информация : Advanced Video Codec
Профиль формата : [email protected]
Параметр CABAC формата : Да
Параметр ReFrames формата : 2 кадра
Идентификатор кодека : V_MPEG4/ISO/AVC
Продолжительность : 2 ч. 9 м.
Вид битрейта : Переменный
Битрейт : 27,5 Мбит/сек
Ширина : 1920 пикселей
Высота : 1080 пикселей
Соотношение сторон : 16:9
Частота кадров : 23,976 кадра/сек
Цветовое пространство : YUV
Субдискретизация насыщенности : 4:2:0
Битовая глубина : 8 бит
Тип развёртки : Прогрессивная
Бит/(Пиксели*Кадры) : 0.553
Размер потока : 25,0 Гбайт (86%)
Заголовок : Аноним
Язык : English
Default : Да
Forced : Нет

Аудио #1
Идентификатор : 2
Формат : DTS
Формат/Информация : Digital Theater Systems
Профиль формата : MA / Core
Идентификатор кодека : A_DTS
Продолжительность : 2 ч. 9 м.
Вид битрейта : Переменный
Битрейт : 1561 Кбит/сек / 1510 Кбит/сек
Каналы : 6 каналов
Расположение каналов : Front: L C R, Side: L R, LFE
Частота : 48,0 КГц
Битовая глубина : 24 бит
Метод сжатия : Без потерь / Lossy
Заголовок : DTS-HD - Дубляж (Blu-ray)
Язык : Russian
Default : Да
Forced : Нет

Аудио #2
Идентификатор : 3
Формат : AC-3
Формат/Информация : Audio Coding 3
Расширение режима : CM (complete main)
Параметр Endianness формата : Big
Идентификатор кодека : A_AC3
Продолжительность : 2 ч. 9 м.
Вид битрейта : Постоянный
Битрейт : 640 Кбит/сек
Каналы : 6 каналов
Расположение каналов : Front: L C R, Side: L R, LFE
Частота : 48,0 КГц
Битовая глубина : 16 бит
Метод сжатия : С потерями
Размер потока : 595 Мбай
523739cc3ca54aa5b030e4e7d405f305ab9b10e0Аноним / Anonymous (Роланд Эммерих / Roland Emmerich, триллер, драма, 2011) [BDRemux 1080p, Профессиональный (полное дублирование), Украинский, Оригинал, комментарии + суб] Аноним / Anonymous (Роланд Эммерих / Roland Emmerich, триллер, драма, 2011) [BDRemux 1080p, Профессиональный (полное дублирование), Украинский, Оригинал, комментарии + суб] " />

Аплоадер: Админ, дата: 14-05-2012, 22:46, торрент скачан: 359 раз

Понравилась раздача? Посмотрите эти:
  • Va-банк / Runner Runner (Брэд Фурман, триллер, драма, криминал, 2013) [BDRe ...
  • Копы в юбках / The Heat [UNRATED] (Пол Фиг, комедия, криминал, боевик, дете ...
  • Аноним / Anonymous (Роланд Эммерих, триллер, драма, 2011) [BDRip-AVC, Профе ...
  • Аноним / Anonymous (Роланд Эммерих, Триллер, 2011) [BDRip - AVC, Дубляж]
  • Аноним / Anonymous (Роланд Эммерих, Триллер, 2011) [BDRip - AVC, Дубляж + У ...
  • Аноним / Anonymous (Роланд Эммерих , триллер, драма, 2011) [HDRip-AVC, Проф ...
  • Аноним / Anonymous (Роланд Эммерих, триллер, драма, 2011) [BDRip-AVC, Профе ...
  • 2012 / 2012 (Роланд Эммерих, Фантастика, боевик, триллер, драма, приключени ...
  • Аноним / Anonymous (Роланд Эммерих, триллер, драма, 2011) [BDRip 720p, Проф ...
  • Защитник / Safe (Боаз Якин, Боевик, криминал, 2012) [BD-Remux 1080p [USA Tr ...
  • Счастливчик / The Lucky One (Скотт Хикс, Драма, мелодрама, 2012) [BD-Remux ...
  • Супер Майк / Magic Mike (Стивен Содерберг, Драма, комедия, 2012) [BD-Remux ...
  • Эволюция Борна / The Bourne Legacy (Тони Гилрой, боевик, триллер, детектив, ...
  • Аноним / Anonymous (Роланд Эммерих , триллер, драма, 2011) [DVD 9, Професси ...
  • Аноним / Anonymous (Роланд Эммерих, триллер, драма, 2011 г) [320x240] [DVDR ...
  • Аноним / Anonymous (Роланд Эммерих, триллер, драма, 2011) [HDRip, Профессио ...
  • Аноним / Anonymous (Роланд Эммерих , триллер, драма, 2011) [HDRip, Професси ...
  • Аноним / Anonymous (Роланд Эммерих / Roland Emmerich, триллер, драма, 2011) ...
  • Аноним / Anonymous (Роланд Эммерих , триллер, драма, 2011) [BDRip, Професси ...
  • Аноним / Anonymous (Роланд Эммерих, триллер, драма, 2011) [HDRip, Профессио ...
  • Информация
    Посетители, находящиеся в группе Гости, не могут оставлять комментарии к данной публикации.