вход на сайт

Имя пользователя :
Пароль :

Восстановление пароля Регистрация
Чужой билет / Bounce (Дон Рус, драма, мелодрама, 2000) [BDRip 720p, Дублированный + Оригинал + Sub]
Рейтинг:
(голосов: 1)



[img]{THEME}/images/logopost.png[/img]



Чужой билет / Bounce
«This October, fall in love with fate.»

Год выпуска: 2000
Страна: США
Производство: Miramax Films
Жанр: драма, мелодрама

Режиссёр: Дон Рус
В ролях: Бен Аффлек, Гвинет Пэлтроу, Наташа Хенстридж, Эдвард Эдвардс, Дженнифер Грей, Тони Голдуин, Лиза Джойнер, Ричард Сэкстон, Кэролайн Аарон

Перевод: Дублированный + Оригинал
Субтитры: русские, английские

Описание: В канун Рождества неисправимый ловелас Бадди Эмарал, подцепив в аэропорту красотку уступает свой авиабилет мужчине, спешащему домой к семье. И этот самолет разбивается. Проходит время, и Бадди решает поехать к вдове погибшего, чтобы как-то помочь ей.

Он хочет загладить свою вину, но, познакомившись с Эбби и ее детьми, впервые влюбляется по-настоящему. И теперь не знает, как рассказать ей, что он и есть тот, кто должен был лететь в злосчастном самолете.
"Знаете ли вы, что..." ▼-Перевод оригинального названия - «Подпрыгивание при посадке».


Качество: BDRip 720p (HDChina)
Продолжительность: 01:46:15 час.

Формат: MKV
Видео кодек: AVC
Аудио кодек: АС3, DTS
Видео: 1280x692 (1.850), 23.976 fps, AVC ~4 890 kbps, 0.230 bit/pix
Аудио: 48 kHz, АС3, 3/2 (L,C,R,l,r) + LFE ch, ~384.00 kbps avg | Russian (DUB)
Аудио: 48 kHz, DTS, 3/2 (L,C,R,l,r) + LFE ch, ~1510.00 kbps avg | English

Премьера (мир): 15 ноября 2000
MediaInfo ▼ormat : Matroska
Format version : Version 2
File size : 5.04 GiB
Duration : 1h 46mn
Overall bit rate : 6 785 Kbps
Encoded date : UTC 2012-05-11 15:30:56
Writing application : mkvmerge v4.6.0 (Still Crazy After All These Years) сборка от Mar 10 2011 02:50:32
Writing library : libebml v1.2.0 + libmatroska v1.1.0
Video
ID : 1
Format : AVC
Format/Info : Advanced Video Codec
Format profile : [email protected]
Format settings, CABAC : Yes
Format settings, ReFrames : 9 frames
Codec ID : V_MPEG4/ISO/AVC
Duration : 1h 46mn
Bit rate : 4 890 Kbps
Width : 1 280 pixels
Height : 692 pixels
Display aspect ratio : 1.850
Frame rate : 24.000 fps
Color space : YUV
Chroma subsampling : 4:2:0
Bit depth : 8 bits
Scan type : Progressive
Bits/(Pixel*Frame) : 0.230
Stream size : 3.53 GiB (70%)
Writing library : x264 core 116 r2074 2641b9e
Encoding settings : cabac=1 / ref=9 / deblock=1:-4:-4 / analyse=0x3:0x133 / me=umh / subme=10 / psy=1 / psy_rd=0.95:0.05 / mixed_ref=1 / me_range=48 / chroma_me=1 / trellis=2 / 8x8dct=1 / cqm=0 / deadzone=21,11 / fast_pskip=0 / chroma_qp_offset=-3 / threads=12 / sliced_threads=0 / nr=0 / decimate=0 / interlaced=0 / bluray_compat=0 / constrained_intra=0 / bframes=9 / b_pyramid=2 / b_adapt=2 / b_bias=0 / direct=3 / weightb=1 / open_gop=0 / weightp=2 / keyint=240 / keyint_min=2 / scenecut=40 / intra_refresh=0 / rc=2pass / mbtree=0 / bitrate=4890 / ratetol=1.0 / qcomp=0.70 / qpmin=0 / qpmax=69 / qpstep=4 / cplxblur=20.0 / qblur=0.5 / ip_ratio=1.37 / pb_ratio=1.25 / aq=2:0.85
Language : English
Default : No
Forced : No
Audio #1
ID : 2
Format : AC-3
Format/Info : Audio Coding 3
Mode extension : CM (complete main)
Codec ID : A_AC3
Duration : 1h 46mn
Bit rate mode : Constant
Bit rate : 384 Kbps
Channel(s) : 6 channels
Channel positions : Front: L C R, Side: L R, LFE
Sampling rate : 48.0 KHz
Bit depth : 16 bits
Compression mode : Lossy
Stream size : 292 MiB (6%)
Title : AC3, 6 ch, 384 kbps - Дубляж
Language : Russian
Default : Yes
Forced : No
Audio #2
ID : 3
Format : DTS
Format/Info : Digital Theater Systems
Codec ID : A_DTS
Duration : 1h 46mn
Bit rate mode : Constant
Bit rate : 1 510 Kbps
Channel(s) : 6 channels
Channel positions : Front: L C R, Side: L R, LFE
Sampling rate : 48.0 KHz
Bit depth : 16 bits
Compression mode : Lossy
Delay relative to video : 11ms
Stream size : 1.12 GiB (22%)
Title : DTS, 6 ch, 1510 kbps
Language : English
Default : No
Forced : No
Text #1
ID : 4
Format : UTF-8
Codec ID : S_TEXT/UTF8
Codec ID/Info : UTF-8 Plain Text
Language : Russian
Default : No
Forced : No
Text #2
ID : 5
b8ce78e90853dbb437f37edb49259182cc947a14Чужой билет / Bounce (Дон Рус, драма, мелодрама, 2000) [BDRip 720p, Дублированный + Оригинал + Sub] Чужой билет / Bounce (Дон Рус, драма, мелодрама, 2000) [BDRip 720p, Дублированный + Оригинал + Sub] " />

Аплоадер: Админ, дата: 13-05-2012, 03:05, торрент скачан: 359 раз

Понравилась раздача? Посмотрите эти:
  • Грязь / Filth (Джон С. Бейрд, криминал, драма, комедия, 2013) [BDRip-AVC, ...
  • Любовь без пересадок / Amour & turbulences (Александр Кастаньетти, мелодрам ...
  • Запретная любовь / The Edge of Love (Джон Мэйбери, Драма, мелодрама, военны ...
  • Жизнь Пи / Life Of Pi (Энг Ли, Драма, приключения, 2012) [BDRip 720p, Профе ...
  • Суррогат / The Sessions (Бен Луин, драма, 2012) [BDRip 720p, Профессиональн ...
  • Зубная фея 2 / Tooth Fairy 2 (Алекс Замм, комедия, семейный, 2012) [BDRip 7 ...
  • Чужой билет / Bounce (Дон Роос, Драма, Романтика, 2000) [DVDRip, дубляж + о ...
  • Персонаж / Stranger Than Fiction (Марк Форстер, Комедия, драма, фантастика, ...
  • Чужой билет / Bounce (Дон Рус, драма, мелодрама, 2000) [HDRip, Дублированны ...
  • Бедная богатая девочка / Young Adult (Джейсон Райтман, драма, комедия, 2011 ...
  • Исходный код / Source Code (Дункан Джонс, фантастика, боевик, триллер, 2011 ...
  • Бобер / The Beaver (Джоди Фостер, драма, 2011) [BDRip 720p, Дубляж + Оригин ...
  • Секс по дружбе / Friends with Benefits (Уилл Глак, драма, мелодрама, комеди ...
  • Ларри Краун / Larry Crowne (Том Хэнкс, драма, мелодрама, комедия, 2011) [BD ...
  • 11-11-11 / 11-11-11 (Даррен Линн Боусман, ужасы, триллер, 2011) [BDRip 720p ...
  • Человек, который изменил всё / Moneyball (Беннетт Миллер, драма, биография, ...
  • Рыжий пес / Red Dog (Крив Стендерс, драма, комедия, семейный, 2011) [BDRip ...
  • Домашняя работа / The Art of Getting By (Гэвин Вьесен, драма, мелодрама, 20 ...
  • Значит, война / This Means War (МакДжи, боевик, мелодрама, комедия, 2012) [ ...
  • «Старый» Новый год / New Years Eve (Гэрри Маршалл, мелодрама, комедия, 2011 ...
  • Мачо и ботан / 21 Jump Street (Фил Лорд, Крис Миллер, боевик, комедия, 2012 ...
  • «Весёлые» каникулы / Get the Gringo (Адриан Грюнберг, Боевик, комедия, 2012 ...
  • Ворон / The Raven (Джеймс МакТиг, Триллер, детектив, 2012) [BDRip 720p, Дуб ...
  • Mylene Farmer / Du Temps [2011, Pop, HDTVRip]
  • Mylene Farmer / Bleu Noir [2011, Pop, HDTVRip]
  • Информация
    Посетители, находящиеся в группе Гости, не могут оставлять комментарии к данной публикации.