вход на сайт

Имя пользователя :
Пароль :

Восстановление пароля Регистрация
Резня /Carnage (Роман Полански, драма, комедия, 2011) [BDRip 1080p, Дублированный +Авторский (одноголосый закадровый) + Оригинал + Sub]
Рейтинг:
(голосов: 1)



[img]{THEME}/images/logopost.png[/img]



Резня / Carnage
«A new comedy of no manners.»

Год выпуска: 2011
Страна: Германия Франция Испания Польша
Производство: Constantin Film Produktion GmbH, SBS Productions, SPI Poland
Жанр: драма, комедия

Режиссёр: Роман Полански / Roman Polanski
В ролях: Джоди Фостер, Кейт Уинслет, Кристоф Вальц, Джон Си Райли, Элвис Полански, Элиот Бергер, Натан Риппи, Таня Лопер, Джули Адамс

Перевод: Профессиональный (дублированный) + Авторский (одноголосый закадровый) Юрий Сербин + Оригинал
Субтитры: Английские

Описание: История двух родительских пар, которые знакомятся после того, как их сыновья сходятся в школьной драке. При этом каждая пара оспаривает родительские навыки другой, вместо того, чтобы разглядеть собственные проблемы.Дата премьеры (мир): 1 сентября 2011
Дата премьеры (РФ): 8 декабря 2011, «Люксор»
Качество: BDRip 1080p | Сэмпл
Продолжительность: 01:16:09

Формат: MKV
Видео кодек: AVC
Аудио кодек: AC3 Dolby Digital, DTS-HD Master Audio
Видео: 1920x800 (2,40:1), 23,976 fps, AVC ~10.2 Мбит/сек, 0.278 bit/pixel
Аудио 1: 48 kHz, AC3 Dolby Digital, 3/2 (L,C,R,l,r) + LFE ch, ~384.00 kbps avg - Профессиональный (дублированный)
Аудио 2: 48 kHz, DTS, 3/2 (L,C,R,l,r) + LFE ch, ~1510.00 kbps avg - Авторский (одноголосый закадровый) Юрий Сербин
Аудио 3: 48 kHz, DTS, 3/2 (L,C,R,l,r) + LFE ch, ~1510.00 kbps avg - Оригинал

MediaInfo ▼Общее
Уникальный идентификатор : 252313159769214447568410259241605790400 (0xBDD1BF39D5E0BEDEB11680C7A6FBFAC0)
Полное имя : D:МусорCarnage.2011.1080p.BluRay.Rus.Eng.HDCLUB.mkv
Формат : Matroska
Версия формата : Version 2
Размер файла : 7,58 Гбайт
Продолжительность : 1 ч. 19 м.
Общий поток : 13,6 Мбит/сек
Дата кодирования : UTC 2012-05-01 12:13:00
Программа кодирования : mkvmerge v3.4.0 (Rapunzel) сборка от May 15 2010 09:38:20
Библиотека кодирования : libebml v0.8.0 + libmatroska v0.9.0
Видео
Идентификатор : 1
Формат : AVC
Формат/Информация : Advanced Video Codec
Профиль формата : [email protected]
Параметр CABAC формата : Да
Параметр ReFrames формата : 5 кадров
Идентификатор кодека : V_MPEG4/ISO/AVC
Продолжительность : 1 ч. 19 м.
Битрейт : 10,2 Мбит/сек
Ширина : 1920 пикселей
Высота : 800 пикселей
Соотношение сторон : 2,40:1
Частота кадров : 23,976 кадра/сек
Цветовое пространство : YUV
Субдискретизация насыщенности : 4:2:0
Битовая глубина : 8 бит
Тип развёртки : Прогрессивная
Бит/(Пиксели*Кадры) : 0.278
Размер потока : 5,53 Гбайт (73%)
Библиотека кодирования : x264 core 120 r2146 bcd41db
Настройки программы : cabac=1 / ref=5 / deblock=1:-3:-3 / analyse=0x3:0x113 / me=umh / subme=10 / psy=1 / psy_rd=1.05:0.10 / mixed_ref=1 / me_range=48 / chroma_me=1 / trellis=2 / 8x8dct=1 / cqm=1 / deadzone=21,11 / fast_pskip=0 / chroma_qp_offset=-2 / threads=12 / sliced_threads=0 / nr=0 / decimate=1 / interlaced=0 / bluray_compat=0 / constrained_intra=0 / bframes=6 / b_pyramid=2 / b_adapt=2 / b_bias=0 / direct=3 / weightb=1 / open_gop=0 / weightp=2 / keyint=250 / keyint_min=23 / scenecut=40 / intra_refresh=0 / rc_lookahead=60 / rc=2pass / mbtree=0 / bitrate=10234 / ratetol=2.0 / qcomp=0.70 / qpmin=3 / qpmax=69 / qpstep=4 / cplxblur=20.0 / qblur=0.5 / vbv_maxrate=40000 / vbv_bufsize=30000 / nal_hrd=none / ip_ratio=1.40 / pb_ratio=1.30 / aq=2:1.00
Язык : English
Default : Нет
Forced : Нет
Аудио #1
Идентификатор : 2
Формат : AC-3
Формат/Информация : Audio Coding 3
Расширение режима : CM (complete main)
Идентификатор кодека : A_AC3
Продолжительность : 1 ч. 19 м.
Вид битрейта : Постоянный
Битрейт : 384 Кбит/сек
Каналы : 5 каналов
Расположение каналов : Front: L C R, Side: L R
Частота : 48,0 КГц
Битовая глубина : 16 бит
Метод сжатия : С потерями
Размер потока : 219 Мбайт (3%)
Заголовок : AC3 5.1 @ 384 kbps – Дубляж, (НТВ+ трансляция)
Язык : Russian
Default : Да
Forced : Нет
Аудио #2
Идентификатор : 3
Формат : DTS
Формат/Информация : Digital Theater Systems
Идентификатор кодека : A_DTS
Продолжительность :
9c875455e9fead9cb21eddd7535003b487b356bcРезня /Carnage (Роман Полански, драма, комедия, 2011) [BDRip 1080p, Дублированный +Авторский (одноголосый закадровый) + Оригинал + Sub] Резня /Carnage (Роман Полански, драма, комедия, 2011) [BDRip 1080p, Дублированный +Авторский (одноголосый закадровый) + Оригинал + Sub] " />

Аплоадер: Админ, дата: 13-05-2012, 02:32, торрент скачан: 359 раз

Понравилась раздача? Посмотрите эти:
  • Пипец / Kick-Ass (Мэттью Вон, боевик, триллер, комедия, криминал, 2010) [BD ...
  • Византия / Byzantium (Нил Джордан, Фэнтези, триллер, драма, 2012) [BDRip 10 ...
  • Мальчишник: Часть III / The Hangover Part III (Тодд Филлипс, комедия, 2013) ...
  • Мальчишник: Часть III / The Hangover Part III (Тодд Филлипс, комедия, 2013) ...
  • Оливер Твист / Oliver Twist (Роман Полански, Драма, 2005) [BDRip 720р, Проф ...
  • Мастер / The Master (Пол Томас Андерсон, драма, 2012) [BDRip-AVC, Дубляж, А ...
  • Резня /Carnage (Роман Полански, драма, комедия, 2011) [DVDRip-AVC, Дублиров ...
  • Переростки / The Inbetweeners (Бен Палмер, Комедия, 2011) [BDRip-AVC, Профе ...
  • Резня / Carnage (Роман Полански, драма, комедия, 2011) [BDRip-AVC, професси ...
  • Резня / Carnage (Роман Полански, драма, комедия, 2011) [BDRip-AVC, Дубляж]
  • 11:14 (Одиннадцать четырнадцать) / 11:14 (Elevenfourteen) (Грег Маркс, трил ...
  • Заражение / Contagion (Стивен Содерберг, Фантастика, 2011) [BDRip 1080p, Пр ...
  • Резня / Carnage (Роман Полански, Драма, 2011) [BDRip 720p, Дубляж + Оригина ...
  • Охотник / The Hunter (Дэниэл Неттхейм, драма, приключения, 2011) [BDRip 108 ...
  • Счастливчик / The Lucky One (Скотт Хикс, Драма, мелодрама, 2012) [BDRip 108 ...
  • Секретная служба Санта-Клауса / Arthur Christmas (Сара Смит, Бэрри Кук, Мул ...
  • Мифы Амазонки / Mythos Amazonas // Сезон 1, выпуски 1-3 (из 3) (документаль ...
  • Девичник в Вегасе / Bridesmaids (Пол Фейг / Paul Feig, комедия, 2011) [BDRi ...
  • Резня / Carnage (Роман Полански, драма, комедия, 2011) [BDRip, Профессионал ...
  • Резня /Carnage (Роман Полански, драма, комедия, 2011) [BDRip, Дублированный ...
  • Информация
    Посетители, находящиеся в группе Гости, не могут оставлять комментарии к данной публикации.