вход на сайт

Имя пользователя :
Пароль :

Восстановление пароля Регистрация
Такси 2 / Taxi 2 (Жерар Кравчик, боевик, комедия, криминал, 2000) [BDRip 720p, профессиональный (многоголосый закадровый) + Авторский (одноголосый закадровый) + Французский + Субтитры (Rus)]
Рейтинг:
(голосов: 1)



[img]{THEME}/images/logopost.png[/img]




Такси 2 / Taxi 2

Cлоган: «Tarnhoj bilakrobatik pa hvinende d?k![Дания]»


Год выпуска: 2000
Страна: Франция
Выпущено: ARP Selection, Canal+ [fr], Leeloo Productions, TF1 Films Production
Жанр: боевик, комедия, криминал

Режиссёр: Жерар Кравчик
В главных ролях:Сами Насери, Фредерик Дифенталь, Марион Котийяр, Эмма Сьоберг, Бернар Фарси, Жан-Кристоф Буве, Фредерик Тирмон, Марк Фор, Хирата Харухико, Цую Симидзу

Перевод: профессиональный (многоголосый закадровый) + Авторский (одноголосый закадровый) + Французский
Субтитры: Russian

О фильме: Во Францию прибывает министр обороны Японии. Цель его визита — ознакомиться с французским опытом борьбы с терроризмом и подписать «контракт века» о взаимном сотрудничестве.

Неожиданно во время показательных выступлений французской полиции министра обороны похищает гангстерская группировка «Якудза», желающая сорвать заключение наиважнейшего контракта. Даниэль и Эмильен отправляются на поиски высокого гостя. В дело вступает уже хорошо знакомое нам такси…



IMDB: рейтинг 6.2/10 (19 475 votes)
КиноПоиск: рейтинг 7.6/10 (34 240 голосов)


MediaInfo ▼Text
Format : Matroska
File size : 4.33 GiB
Duration : 1h 28mn
Overall bit rate : 7 015 Kbps
Encoded date : UTC 2011-09-27 11:32:00
Writing application : mkvmerge v4.5.0 (Speed of Light) сборка от Feb 1 2011 02:10:32
Writing library : libebml v1.2.0 + libmatroska v1.1.0

Video
ID : 1
Format : AVC
Format/Info : Advanced Video Codec
Format profile : [email protected]
Format settings, CABAC : Yes
Format settings, ReFrames : 6 frames
Muxing mode : Container [email protected]
Codec ID : V_MPEG4/ISO/AVC
Duration : 1h 28mn
Bit rate : 5 980 Kbps
Nominal bit rate : 6 130 Kbps
Width : 1 280 pixels
Height : 544 pixels
Display aspect ratio : 2.35:1
Frame rate : 24.000 fps
Resolution : 24 bits
Colorimetry : 4:2:0
Scan type : Progressive
Bits/(Pixel*Frame) : 0.358
Stream size : 3.69 GiB (85%)
Writing library : x264 core 116 r2074 2641b9e
Encoding settings : cabac=1 / ref=6 / deblock=1:-2:-1 / analyse=0x3:0x113 / me=umh / subme=11 / psy=1 / psy_rd=0.95:0.03 / mixed_ref=1 / me_range=32 / chroma_me=1 / trellis=2 / 8x8dct=1 / cqm=0 / deadzone=21,11 / fast_pskip=0 / chroma_qp_offset=-3 / threads=3 / sliced_threads=0 / nr=0 / decimate=0 / interlaced=0 / bluray_compat=0 / constrained_intra=0 / bframes=9 / b_pyramid=2 / b_adapt=2 / b_bias=0 / direct=3 / weightb=1 / open_gop=0 / weightp=2 / keyint=250 / keyint_min=24 / scenecut=40 / intra_refresh=0 / rc_lookahead=60 / rc=2pass / mbtree=0 / bitrate=6130 / ratetol=1.0 / qcomp=0.60 / qpmin=0 / qpmax=69 / qpstep=4 / cplxblur=20.0 / qblur=0.5 / vbv_maxrate=50000 / vbv_bufsize=62500 / nal_hrd=none / ip_ratio=1.40 / pb_ratio=1.30 / aq=1:1.00
Matrix coefficients : BT.709-5, BT.1361, IEC 61966-2-4 709, SMPTE RP177

Audio #1
ID : 2
Format : AC-3
Format/Info : Audio Coding 3
Codec ID : A_AC3
Duration : 1h 28mn
Bit rate mode : Constant
Bit rate : 448 Kbps
Channel(s) : 6 channels
Channel positions : Front: L C R, Surround: L R, LFE
Sampling rate : 48.0 KHz
Stream size : 283 MiB (6%)
Title : Дубляж
Language : Russian

Audio #2
ID : 3
Format : AC-3
Format/Info : Audio Coding 3
Codec ID : A_AC3
Duration : 1h 28mn
Bit rate mode : Constant
Bit rate : 448 Kbps
Channel(s) : 6 channels
Channel positions : Front: L C R, Surround: L R, LFE
Sampling rate : 48.0 KHz
Stream size : 283 MiB (6%)
Title : Оригинал
Language : French

Text
ID : 4
Format : UTF-8
Codec ID : S_TEXT/UTF8
Codec ID/Info : UTF-8 Plain Text
Title : Русские
Language : Russian

Menu
00:00:00.000 : en:00:00:00.000
00:07:29.750 : en:00:07:29.750
00:14:43.500 : en:00:14:43.500
00:23:18.417 : en:00:23:18.417
00:31:25.333 : en:00:31:25.333
00:39:41.000 : en:00:39:41.000
00:46:52.792 : en:00:46:52.792
00:54:17.083 : en:00:54:17.083
01:01:14.125 : en:01:01:14.125
01:08:10.333 : en:01:08:10.333
01:15:46.083 : en:01:15:46.083
01:23:34.125 : en:01
b49936c00ad9ef324b8640539e43b65be6b811a7Такси 2 / Taxi 2 (Жерар Кравчик, боевик, комедия, криминал, 2000) [BDRip 720p, профессиональный (многоголосый закадровый) + Авторский (одноголосый закадровый) + Французский + Субтитры (Rus)] Такси 2 / Taxi 2 (Жерар Кравчик, боевик, комедия, криминал, 2000) [BDRip 720p, профессиональный (многоголосый закадровый) + Авторский (одноголосый закадровый) + Французский + Субтитры (Rus)] " />

Аплоадер: Админ, дата: 13-04-2012, 23:26, торрент скачан: 359 раз

Понравилась раздача? Посмотрите эти:
  • Верное дельце / Une pure affaire (Александр Коффре, Боевик, Комедия, Кримин ...
  • Такси [Квадрология] / Taxi [Quadrilogy] (Жерар Пирес, Жерар Кравчик, Боевик ...
  • Такси / Taxi (Жерар Пирес, боевик, комедия, криминал, 1998) [BDRip 1080p, Д ...
  • Отдел 13 / Diamant 13 (Гайллз Бэхат, Боевик, триллер, криминал, 2009) [BDRi ...
  • Такси 2 / Taxi 2 (Жерар Кравчик, Боевик, комедия, криминал, 2000) [BDRip-AV ...
  • Водитель / The Driver (Уолтер Хилл, Боевик, триллер, драма, криминал, 1978) ...
  • Убить по расписанию / Ticking Clock (Эрни Барбараш, фантастика, боевик, три ...
  • Убить Боно / Killing Bono (Ник Хэмм, комедия, 2010) [BDRip 720p, Профессион ...
  • Такси 2 / Taxi 2 (Жерар Кравчик / Gerard Krawczyk, Боевик, Комедия, 2000) [ ...
  • Такси 4 [Режиссерская версия] / Taxi 4 [Directors Cut] (Жерар Кравчик, коме ...
  • Вальгалла: Сага о викинге / Valhalla Rising (Николас Виндинг Рёфн, боевик, ...
  • Повторяющие / Repeaters (Карл Бессай, фантастика, боевик, триллер, драма, к ...
  • Охота за "Красным Октябрём" / The Hunt for "Red October" (Джон МакТирнан, б ...
  • Роб Рой / Rob Roy (Майкл Кейтон-Джонс, боевик, драма, мелодрама, 1995) [BDR ...
  • Красавчик Джонни / Johnny Handsome (Уолтер Хилл, Триллер, драма, криминал, ...
  • Любовь живет три года / Lamour dure trois ans (Фредерик Бегбедер / Frederic ...
  • Путешествие на край Вселенной / Journey to the Edge of the Universe (Явар А ...
  • Такси 1,2,3,4 / Taxi 1,2,3,4 (Жерар Пирес/Жерар Кравчик//комедия, боевик, к ...
  • Такси 1,2,3,4 [Квадрология] / Taxi 1,2,3,4 [Quadrilogy] (Жерар Пирес, Ж ...
  • [Квадрология] Такси 1,2,3,4 / [Quadrology] Taxi 1,2,3,4 (Жерар Пирес, Жерар ...
  • Информация
    Посетители, находящиеся в группе Гости, не могут оставлять комментарии к данной публикации.