вход на сайт

Имя пользователя :
Пароль :

Восстановление пароля Регистрация
Случайный роман / De vrais mensonges (Пьер Сальвадори, мелодрама, комедия, 2010) [BDRip 720p, профессиональный (многоголосый закадровый) + Французский + Субтитры (Eng)]
Рейтинг:
(голосов: 1)



[img]{THEME}/images/logopost.png[/img]



Случайный роман / De vrais mensonges

Cлоган: «Sometimes a little white lie can change everything»


Год выпуска: 2010
Страна: Франция
Выпущено: Angoa-Agicoa, Backup Films, Canal+ [fr], Centre National de la Cinematographie (CNC), Cine Cinemas, Cinemage 4, Coficup, Developimage, Les Films Pelleas, Procirep, Region Languedoc-Roussillon, Soficapital, TF1 Films Production, Tovo Films, Wild Bunch
Жанр: мелодрама, комедия

Режиссёр: Пьер Сальвадори
В главных ролях:Одри Тоту, Натали Бэй, Сами Буажила, Стефани Лагард, Жюдит Шемла, Сесиль Болан, Дидье Брайс, Даниэль Дюваль

Перевод: профессиональный (многоголосый закадровый) + Французский
Субтитры: English

О фильме: B центре сюжета фильма находится жизнь владелицы салона красоты, которая не в силах помочь своей матери, находящейся в депрессии после того, как ее оставил муж. Но однажды девушка получает анонимное любовное письмо, и это наталкивает ее на мысль изменить свое имя на имя мамы. Этот план срабатывает почти идеально: мама снова ощущает вкус к жизни и начинает с нетерпением следить за почтовым ящиком. Счастливая, но очутившаяся в собственной же ловушке, ее дочь вынуждена теперь не только сочинять письма, но и искать кого-то, кто смог бы сыграть влюбленного автора…



IMDB: рейтинг 6.4/10 (1 930 votes)
КиноПоиск: рейтинг 6.8/10 (780 голосов)


MediaInfo ▼Text
General
Complete name : Sly4ainii.roman.2010.x264.BDRip.720p.IRONCLUB.mkv
Format : Matroska
File size : 4.63 GiB
Duration : 1h 40mn
Overall bit rate : 6 612 Kbps
Movie name : IRONCLUB
Encoded date : UTC 2011-12-11 19:08:49
Writing application : mkvmerge v5.1.0 (And so it goes) built on Nov 28 2011 23:58:28
Writing library : libebml v1.2.3 + libmatroska v1.3.0

Video
ID : 1
Format : AVC
Format/Info : Advanced Video Codec
Format profile : [email protected]
Format settings, CABAC : Yes
Format settings, ReFrames : 9 frames
Codec ID : V_MPEG4/ISO/AVC
Duration : 1h 40mn
Bit rate : 5 598 Kbps
Width : 1 280 pixels
Height : 692 pixels
Display aspect ratio : 1.850
Frame rate : 25.000 fps
Color space : YUV
Chroma subsampling : 4:2:0
Bit depth : 8 bits
Scan type : Progressive
Bits/(Pixel*Frame) : 0.253
Stream size : 3.82 GiB (83%)
Title : Beautiful.Lies.2010.720p.BluRay.x264-WiKi
Writing library : x264 core 98 r1649 c54c47d
Encoding settings : cabac=1 / ref=9 / deblock=1:-3:-3 / analyse=0x3:0x113 / me=umh / subme=10 / psy=1 / psy_rd=1.10:0.00 / mixed_ref=1 / me_range=32 / chroma_me=1 / trellis=2 / 8x8dct=1 / cqm=0 / deadzone=21,11 / fast_pskip=0 / chroma_qp_offset=-4 / threads=12 / sliced_threads=0 / nr=0 / decimate=0 / interlaced=0 / constrained_intra=0 / bframes=6 / b_pyramid=2 / b_adapt=2 / b_bias=0 / direct=3 / weightb=1 / weightp=2 / keyint=250 / keyint_min=25 / scenecut=40 / intra_refresh=0 / rc_lookahead=48 / rc=2pass / mbtree=1 / bitrate=5598 / ratetol=1.0 / qcomp=0.60 / qpmin=10 / qpmax=51 / qpstep=4 / cplxblur=20.0 / qblur=0.5 / ip_ratio=1.40 / aq=1:0.80
Language : French

Audio #1
ID : 2
Format : AC-3
Format/Info : Audio Coding 3
Mode extension : CM (complete main)
Codec ID : A_AC3
Duration : 1h 40mn
Bit rate mode : Constant
Bit rate : 384 Kbps
Channel(s) : 6 channels
Channel positions : Front: L C R, Side: L R, LFE
Sampling rate : 48.0 KHz
Bit depth : 16 bits
Stream size : 275 MiB (6%)
Title : NVO R5
Language : Russian

Audio #2
ID : 3
Format : AC-3
Format/Info : Audio Coding 3
Mode extension : CM (complete main)
Codec ID : A_AC3
Duration : 1h 40mn
Bit rate mode : Constant
Bit rate : 640 Kbps
Channel(s) : 6 channels
Channel positions : Front: L C R, Side: L R, LFE
Sampling rate : 48.0 KHz
Bit depth : 16 bits
Stream size : 459 MiB (10%)
Title : Original
Language : French

Text
ID : 4
Format : UTF-8
Codec ID : S_TEXT/UTF8
Codec ID/Info : UTF-8 Plain Text
Title : English
Language : English


Качество: BDRip 720p
Продолжительность: 01:40:11

Формат: MKV
Видео кодек: AVC
Аудио кодек:
9f44008171c2e2122265dd6207fa7c87d269af36Случайный роман / De vrais mensonges (Пьер Сальвадори, мелодрама, комедия, 2010) [BDRip 720p, профессиональный (многоголосый закадровый) + Французский + Субтитры (Eng)] Случайный роман / De vrais mensonges (Пьер Сальвадори, мелодрама, комедия, 2010) [BDRip 720p, профессиональный (многоголосый закадровый) + Французский + Субтитры (Eng)] " />

Аплоадер: Админ, дата: 13-04-2012, 21:28, торрент скачан: 359 раз

Понравилась раздача? Посмотрите эти:
  • Погнали! / Getaway (Кортни Соломон, боевик, криминал, 2013) [BDRip 720p, Пр ...
  • Верное дельце / Une pure affaire (Александр Коффре, Боевик, Комедия, Кримин ...
  • Как выйти замуж за 3 дня / Leap Year (Ананд Такер, Мелодрама, комедия, 2010 ...
  • Смерть на похоронах / Death at a Funeral (Нил ЛаБут, комедия, 2010) [BDRip ...
  • Отдел 13 / Diamant 13 (Гайллз Бэхат, Боевик, триллер, криминал, 2009) [BDRi ...
  • Безопасность не гарантируется / Safety Not Guaranteed (Колин Треворроу, фан ...
  • Суррогат / The Sessions (Бен Луин, драма, 2012) [BDRip 720p, Профессиональн ...
  • Джекпот / Arme Riddere (Магнус Мартенс, Боевик, комедия, криминал, 2011) [B ...
  • Зубная фея 2 / Tooth Fairy 2 (Алекс Замм, комедия, семейный, 2012) [BDRip 7 ...
  • Убить по расписанию / Ticking Clock (Эрни Барбараш, фантастика, боевик, три ...
  • Шелуха / Husk (Бретт Симмонс, ужасы, триллер, 2011) [BDRip 720p, Профессион ...
  • Комплексный уход / De vrais mensonges ( мелодрама, комедия 2010) [DVDRip ...
  • Властелин измерений / Grande ourse - La cle des possibles (Патрис Сов, фант ...
  • Персонаж / Stranger Than Fiction (Марк Форстер, Комедия, драма, фантастика, ...
  • Сутенер / Le mac (Паскаль Бюрдо / Pascal Bourdiaux, комедия, криминал, 2010 ...
  • Идеальный Голос / Pitch Perfect (Джейсон Мур, Комедия, музыка, 2012) [BDRip ...
  • Роковая красотка / Hors de prix(Пьер Сальвадори / Pierre Salvadori, комедия ...
  • Дети шпионов 4D / Spy Kids: All the Time in the World in 4D (Роберт Родриге ...
  • Далеко-далеко / Far and Away (Рон Ховард, драма, мелодрама, приключения, ве ...
  • Рыжий пес / Red Dog (Крив Стендерс, драма, комедия, семейный, 2011) [BDRip ...
  • Похищенная / A Lonely Place to Die (Джулиан Джилби, триллер, криминал, прик ...
  • Такси 2 / Taxi 2 (Жерар Кравчик, боевик, комедия, криминал, 2000) [BDRip 72 ...
  • Семь футов / Seven Below (Кевин Каррауэй, Ужасы, триллер, 2012) [BDRip 720p ...
  • Дело - труба / Brassed Off (Марк Херман, драма, мелодрама, комедия, 1996) [ ...
  • Нет мужчин - нет проблем / Without Men (Габриела Тальявини / Gabriela Tagli ...
  • Информация
    Посетители, находящиеся в группе Гости, не могут оставлять комментарии к данной публикации.