вход на сайт

Имя пользователя :
Пароль :

Восстановление пароля Регистрация
Последняя любовь на Земле / Perfect Sense (Дэвид МакКензи, фантастика, драма, мелодрама, 2011) [BDRip 1080p, Профессиональный (многоголосый, закадровый)]
Рейтинг:
(голосов: 1)



[img]{THEME}/images/logopost.png[/img]



Последняя любовь на Земле / Perfect Sense
Год выпуска: 2011
Страна: Дания, Швеция, Великобритания, Ирландия
Производство: Вольга
Жанр: фантастика, драма, мелодрама
Режиссёр: Дэвид МакКензи
В ролях: Юэн МакГрегор, Ева Грин, Конни Нильсен, Стивен Диллэйн, Юэн Бремнер, Аластер Маккензи
Перевод: Профессиональный (многоголосый, закадровый)
Субтитры: Английские, русские (Воронин)
Описание: Земля столкнулась с небывалым бедствием. В разных странах, на каждом континенте люди в самом буквальном смысле лишаются чувств — каждого из пяти, одного за другим… Майкл и Сьюзан считают свою связь мимолетной, но когда становится ясно, что мир неумолимо приближается к концу, герои понимают — им уже не прожить друг без друга. Но что останется, когда пропадут последние чувства?
Рейтинг КиноПоиск.RU: 7.783
Рейтинг на IMDB: 7.1/10
Качество: BDRip 1080p
Продолжительность: 01:32:11
Формат: mkv
Видео кодек: AVC MPEG-4 (x264)
Аудио кодек: DTS
Видео: 1920x816 (2.35:1), 24 fps, x264 ~9.1 Mbps avg, 0.243 bit/pixel
Аудио №1: Русский 48 kHz, DTS, 6 ch, 1510 kbps avg [Профессиональный (многоголосый, закадровый)]
Аудио №2: Английский 48 kHz, DTS, 6 ch, 755 kbps avg [Оригинал]
Media info ▼Общее
Уникальный идентификатор : 191644165758241000965515498720348676028 (0x902D52E14933C33AAD74C8AF99811FBC)
Полное имя : H:торрентыposlednyaja_lubov_na_zemle_[tfile.ru].mkv
Формат : Matroska
Версия формата : Version 2
Размер файла : 7,36 Гбайт
Продолжительность : 1 ч. 32 м.
Общий поток : 11,4 Мбит/сек
Название фильма : -::: ed_rez :::-
Дата кодирования : UTC 2012-03-07 15:15:16
Программа кодирования : mkvmerge v5.3.0 (I could have danced) built on Feb 9 2012 10:38:07
Библиотека кодирования : libebml v1.2.3 + libmatroska v1.3.0

Видео
Идентификатор : 1
Формат : AVC
Формат/Информация : Advanced Video Codec
Профиль формата : [email protected]
Параметр CABAC формата : Да
Параметр ReFrames формата : 5 кадров
Идентификатор кодека : V_MPEG4/ISO/AVC
Продолжительность : 1 ч. 32 м.
Битрейт : 9153 Кбит/сек
Ширина : 1920 пикселей
Высота : 816 пикселей
Соотношение сторон : 2,35:1
Частота кадров : 24,000 кадра/сек
Цветовое пространство : YUV
Субдискретизация насыщенности : 4:2:0
Битовая глубина : 8 бит
Тип развёртки : Прогрессивная
Бит/(Пиксели*Кадры) : 0.243
Размер потока : 5,75 Гбайт (78%)
Заголовок : Perfect Sense (2011)
Библиотека кодирования : x264 core 120 r2164 da19765
Настройки программы : cabac=1 / ref=5 / deblock=1:0:0 / analyse=0x3:0x113 / me=umh / subme=9 / psy=1 / psy_rd=1.00:0.00 / mixed_ref=1 / me_range=16 / chroma_me=1 / trellis=1 / 8x8dct=1 / cqm=0 / deadzone=21,11 / fast_pskip=1 / chroma_qp_offset=-2 / threads=12 / sliced_threads=0 / nr=0 / decimate=1 / interlaced=0 / bluray_compat=0 / constrained_intra=0 / bframes=3 / b_pyramid=2 / b_adapt=1 / b_bias=0 / direct=3 / weightb=1 / open_gop=0 / weightp=2 / keyint=250 / keyint_min=24 / scenecut=40 / intra_refresh=0 / rc_lookahead=40 / rc=2pass / mbtree=1 / bitrate=9153 / ratetol=1.0 / qcomp=0.60 / qpmin=0 / qpmax=69 / qpstep=4 / cplxblur=20.0 / qblur=0.5 / ip_ratio=1.40 / aq=1:1.00
Язык : English

Аудио #1
Идентификатор : 2
Формат : DTS
Формат/Информация : Digital Theater Systems
Идентификатор кодека : A_DTS
Продолжительность : 1 ч. 32 м.
Вид битрейта : Постоянный
Битрейт : 1510 Кбит/сек
Каналы : 6 каналов
Расположение каналов : Front: L C R, Side: L R, LFE
Частота : 48,0 КГц
Битовая глубина : 24 бит
Метод сжатия : С потерями
Размер потока : 995 Мбайт (13%)
Заголовок : [MVO] DTS, 6 ch, 755 Кбит/с
Язык : Russian

Аудио #2
Идентификатор : 3
Формат : DTS
Формат/Информация : Digital Theater Systems
Идентификатор кодека : A_DTS
Продолжительность : 1 ч. 32 м.
Вид битрейта : Постоянный
Битрейт : 755 Кбит/сек
Каналы : 6 каналов
Расположение каналов : Front: L C R, Side: L R, LFE
Частота : 48,0 КГц
Битовая глубина : 16 бит
Метод сжатия : С потерями
Размер потока : 497 Мбайт (7%
3dbeaaee01f3a84e67944815d9200038fb0f9f9bПоследняя любовь на Земле / Perfect Sense (Дэвид МакКензи, фантастика, драма, мелодрама, 2011) [BDRip 1080p, Профессиональный (многоголосый, закадровый)] Последняя любовь на Земле / Perfect Sense (Дэвид МакКензи, фантастика, драма, мелодрама, 2011) [BDRip 1080p, Профессиональный (многоголосый, закадровый)] " />

Аплоадер: Админ, дата: 13-04-2012, 18:51, торрент скачан: 359 раз

Понравилась раздача? Посмотрите эти:
  • Мэрайа Мунди и шкатулка Мидаса / The Adventurer: The Curse of the Midas Box ...
  • Джобс: Империя соблазна / jOBS (Джошуа Майкл Штерн, драма, биография, 2013) ...
  • Погнали! / Getaway (Кортни Соломон, боевик, криминал, 2013) [BDRip 1080p, П ...
  • Заклятие / The Conjuring (Джеймс Ван, ужасы, триллер, 2013) [BDRip 1080p, Д ...
  • Перелом / Fracture (Грегори Хоблит, Триллер, драма, криминал, детектив, 200 ...
  • Шестое чувство / The Sixth Sense (М. Найт Шьямалан, триллер, драма, детекти ...
  • Возвращение героя / The Last Stand (Ким Чжи-ун, Боевик, триллер, криминал, ...
  • Последняя любовь на Земле / Perfect Sense (Дэвид МакКензи, фантастика, драм ...
  • Суррогат / The Sessions (Бен Луин, Драма, 2012) [BDRip-AVC, Профессиональны ...
  • Бессонная ночь / Nuit blanche (Фредерик Жарден, боевик, триллер, 2011) [BDR ...
  • Ошибка телохранителя / The Girl from the Naked Eye (Дэвид Рен, боевик, трил ...
  • Думай, как мужчина / Think Like a Man (Тим Стори, Мелодрама, комедия, 2012) ...
  • Последняя любовь на Земле / Perfect Sense (Дэвид МакКензи, драма, мелодрама ...
  • Последняя любовь на Земле / Perfect Sense (Дэвид МакКензи, драма, мелодрама ...
  • Последняя любовь на Земле / Perfect Sense (фантастика, драма, мелодрама, фа ...
  • Заражение / Contagion (Стивен Содерберг, Фантастика, 2011) [BDRip 1080p, Пр ...
  • Переростки / The Inbetweeners (Бен Палмер / Ben Palmer, комедия, 2011) [BDR ...
  • Бедная богатая девочка / Young Adult (Джейсон Райтман, драма, комедия, 2011 ...
  • Бульвар спасения / Salvation Boulevard (Джордж Рэтлифф, Боевик, триллер, др ...
  • Лето. Одноклассники. Любовь / LOL (Лиза Азуэлос, Драма, мелодрама, комедия, ...
  • Лето. Одноклассники. Любовь / LOL (Лиза Азуэлос, Драма, мелодрама, комедия, ...
  • Павшая империя / Hirokin (Алехо Мо-Сан, фантастика, боевик, драма, приключе ...
  • Девичник в Вегасе / Bridesmaids (Пол Фейг / Paul Feig, комедия, 2011) [BDRi ...
  • Последняя любовь на Земле / Perfect Sense (Дэвид МакКензи, драма, мелодрама ...
  • Последняя любовь на Земле / Perfect Sense (Дэвид МакКензи, драма, мелодрама ...
  • Информация
    Посетители, находящиеся в группе Гости, не могут оставлять комментарии к данной публикации.