вход на сайт

Имя пользователя :
Пароль :

Восстановление пароля Регистрация
Время ведьм / Season of the Witch (Доминик Сена, Фэнтези, 2010) [BDRip-AVC, Профессиональный (полное дублирование) + Авторский (одноголосый закадровый) + Оригинал + Sub]
Рейтинг:
(голосов: 1)



[img]{THEME}/images/logopost.png[/img]



Время ведьм / Season of the Witch
«Не все души можно спасти»

Год выпуска: 2011
Страна: США
Производство: Atlas Entertainment / Relativity Media
Жанр: фэнтези, боевик, приключения

Режиссёр: Доминик Сена
В ролях: Николас Кейдж, Рон Перлман, Стивен Кэмпбелл Мур, Стивен Грэм, Ульрих Томсен, Клер Фой, Роберт Шиэн, Кристофер Ли, Ребека Кеннеди, Эндрю Хефлер

Перевод: Профессиональный (полное дублирование) + Авторский (одноголосый закадровый) (zamez) + Оригинал
Субтитры: Русские, английские

Описание: XIV столетие. В Европе свирепствует чума. Виновницей смертоносной беды признают беззащитную девушку, подозревая ее в колдовстве. Умирающий кардинал просит рыцаря Бэймена доставить ведьму в далекое аббатство, где ее чары должны быть разрушены.

Шестеро верховых и повозка с железной клеткой, в которой заточена обвиняемая, отправляются в опасное путешествие. Скоро рыцари осознают, их миловидная спутница действительно не человек, а исчадие ада.
"Знаете ли вы, что..." ▼Для съемок сцены погони волков за главными героями создатели фильма обратились к известному дрессировщику Золтану Хоркаи. В съемках принимали участие семь волков, причем каждый должен был выполнять определенные действия на экране.


Релиз от :
Автор рипа : chopper887

Качество: BDRip-AVC [Исходник: BDRemux]
Продолжительность: 01:34:42 час.

Формат: MKV
Видео кодек: AVC
Аудио кодек: AC3
Видео: 1280x720 (16:9), 23.976 fps, AVC ~4494 kbps avg, 0.203 bit/pixel
Аудио: 48 kHz, AAC-LC, 3/2 (L,C,R,l,r) + LFE ch, ~448 kbps | Russian (DUB)
Аудио: 48 kHz, AAC-LC, 2 ch, ~192 kbps | Russian (AVO)
Аудио: 48 kHz, AAC-LC, 3/2 (L,C,R,l,r) + LFE ch, ~448 kbps | English

Премьера (мир): 4 января 2011
Премьера (РФ): 6 января 2011, «Парадиз»
Mediainfo ▼General
Unique ID : 254868424492944901177192503026075019824 (0xBFBDDF80EC933EC79F6F812C4CA7AA30)
Complete name : L:Vremia vedm.chopper887.mkv
Format : Matroska
File size : 3.70 GiB
Duration : 1h 34mn
Overall bit rate : 5 574 Kbps
Movie name : Vremia vedm.chopper887
Encoded date : UTC 2011-07-11 14:57:04
Writing application : mkvmerge v4.8.0 (I Got The...) built on May 24 2011 03:12:58
Writing library : libebml v1.2.0 + libmatroska v1.1.0
Video
ID : 1
Format : AVC
Format/Info : Advanced Video Codec
Format profile : [email protected]
Format settings, CABAC : Yes
Format settings, ReFrames : 9 frames
Codec ID : V_MPEG4/ISO/AVC
Duration : 1h 34mn
Bit rate : 4 494 Kbps
Width : 1 280 pixels
Height : 720 pixels
Display aspect ratio : 16:9
Frame rate : 23.976 fps
Color space : YUV
Chroma subsampling : 4:2:0
Bit depth : 8 bits
Scan type : Progressive
Bits/(Pixel*Frame) : 0.203
Stream size : 2.90 GiB (78%)
Title : Vremia vedm.chopper887
Writing library : x264 core 115 r2008 4c552d8
Encoding settings : cabac=1 / ref=9 / deblock=1:-2:-1 / analyse=0x3:0x133 / me=umh / subme=10 / psy=1 / psy_rd=1.00:0.15 / mixed_ref=1 / me_range=32 / chroma_me=1 / trellis=2 / 8x8dct=1 / cqm=0 / deadzone=21,11 / fast_pskip=0 / chroma_qp_offset=-3 / threads=3 / sliced_threads=0 / nr=0 / decimate=1 / interlaced=0 / bluray_compat=0 / constrained_intra=0 / bframes=8 / b_pyramid=2 / b_adapt=2 / b_bias=0 / direct=3 / weightb=1 / open_gop=0 / weightp=2 / keyint=250 / keyint_min=23 / scenecut=40 / intra_refresh=0 / rc_lookahead=80 / rc=2pass / mbtree=1 / bitrate=4494 / ratetol=1.0 / qcomp=0.70 / qpmin=10 / qpmax=51 / qpstep=4 / cplxblur=20.0 / qblur=0.5 / ip_ratio=1.40 / aq=1:1.10
Language : English
Audio #1
ID : 2
Format : AC-3
Format/Info : Audio Coding 3
Mode extension : CM (complete main)
Codec ID : A_AC3
Duration : 1h 34mn
Bit rate mode : Constant
Bit rate : 448 Kbps
Channel(s) : 6 channels
Channel positions : Front: L C R, Side: L R, LFE
Sampling rate : 48.0 KHz
Bit depth : 16 bits
Compression mode : Lossy
Delay relative to video : 13s 200ms
Stream size : 304 MiB (8%)
Title : Dub
Language : Russian
Audio #2
ID : 3
Format : AC-3
For
9a6e6c63a6f3991962a9db33a697cb89b0388819Время ведьм / Season of the Witch (Доминик Сена, Фэнтези, 2010) [BDRip-AVC, Профессиональный (полное дублирование) + Авторский (одноголосый закадровый) + Оригинал + Sub] Время ведьм / Season of the Witch (Доминик Сена, Фэнтези, 2010) [BDRip-AVC, Профессиональный (полное дублирование) + Авторский (одноголосый закадровый) + Оригинал + Sub] " />

Аплоадер: Админ, дата: 13-04-2012, 18:43, торрент скачан: 359 раз

Понравилась раздача? Посмотрите эти:
  • Пастырь / Priest (Скотт Чарльз Стюарт, ужасы, фантастика, боевик, триллер, ...
  • Железная леди / The Iron Lady (Филлида Ллойд, драма, биография, история, 20 ...
  • Время ведьм / Season of the Witch (Доминик Сена, фэнтези, 2011) [HDRip-AVC, ...
  • Муви 43 / Movie 43 (Стивен Брилл, Питер Фаррелли, Элизабет БэнксСтивен, ком ...
  • Время ведьм / Season of the Witch (Доминик Сена, Фэнтези, 2010) [BDRip-AVC, ...
  • Цельнометаллическая оболочка / Full Metal Jacket (Стэнли Кубрик, драма, вое ...
  • Голодный кролик атакует / Seeking Justice (Роджер Дональдсон / Roger Donald ...
  • Хранитель времени / Hugo (Мартин Скорсезе, Драма, 2011) [BDRip-AVC, Професс ...
  • Хранитель времени / Hugo (Мартин Скорсезе, Драма, 2011) [BDRip-AVC, Професс ...
  • Время ведьм / Season of the Witch (Доминик Сена / Dominic Sena, фэнтези, бо ...
  • Время ведьм / Season of the Witch (Доминик Сена / Dominic Sena, фэнтези, бо ...
  • Охота за "Красным Октябрём" / The Hunt for "Red October" (Джон МакТирнан, б ...
  • Город воров [Театральная версия] / The Town [Theatrical cut] (Бен Аффлек, т ...
  • Время ведьм / Season of the Witch (Доминик Сена, Фэнтези, 2010) [BDRip 720 ...
  • Другой мир: Пробуждение / Underworld: Awakening (Монс Морлинд, Бьёрн Стейн, ...
  • Время ведьм / Season of the Witch (Доминик Сена, фэнтези, боевик, приключен ...
  • Время ведьм / Season of the Witch (Доминик Сена, фэнтези, боевик, приключен ...
  • Время ведьм / Season of the Witch (Доминик Сена, фэнтези, боевик, приключен ...
  • Время ведьм / Season of the Witch (Доминик Сена, фэнтези, боевик, приключен ...
  • [EN] Время ведьм / Season of the Witch (Доминик Сена, фэнтези, боевик, при ...
  • Время ведьм / Season of the Witch (Доминик Сена, фэнтези, боевик, приключен ...
  • Время ведьм / Season of the Witch (Доминик Сена, фэнтези, приключения, 2010 ...
  • Время ведьм / Season of the Witch (Доминик Сена, Фэнтези, 2011) [Blu-Ray, Д ...
  • Время ведьм / Season of the Witch (Доминик Сена, фэнтези, боевик, приключен ...
  • Время ведьм / Season of the Witch (Доминик Сена, Фэнтези, Боевик, Приключе ...
  • Информация
    Посетители, находящиеся в группе Гости, не могут оставлять комментарии к данной публикации.