вход на сайт

Имя пользователя :
Пароль :

Восстановление пароля Регистрация
Палата / The Ward (Джон Карпентер , ужасы, триллер, 2010) [BDRip 720p, Профессиональный (полное дублирование) + оригинал + комментарии + субтитры]
Рейтинг:
(голосов: 1)



[img]{THEME}/images/logopost.png[/img]



Палата / The Ward
«Only Sanity Can Keep You Alive»

Год выпуска: 2010
Страна: США
Производство: A Bigger Boat
Жанр: ужасы, триллер

Режиссёр: Джон Карпентер
В ролях:Эмбер Хёрд, Мэми Гаммер, Даниэль Панабэйкер, Лора Ли, Линдси Фонсека, Джаред Харрис, Сали Сейлер, Сузанна Берни, Дэн Андерсон, Шон Кук

Перевод: Профессиональный (полное дублирование) + оригинал + комментарии
Субтитры:Russian, English

Описание:Кристен проходит лечение в психиатрической лечебнице. Вместе с ней проходят лечение еще четыре девушки. По ночам, когда больница погружается во тьму, она слышит странные пугающие звуки и понимает, что они тут не одни. Одна за другой девушки начинают исчезать, и Кристен понимает, что должна как можно скорее выбраться отсюда. Пытаясь сбежать, она понимает, что истинная природа звуков намного ужаснее, чем могло показаться вначале.

IMDB: 5.6
КиноПоиск: 5.51

Качество: BDRip 720p
Продолжительность:01:28:55

Формат: MKV
Видео кодек: x264
Аудио кодек: DTS
Формат видео: 1280x544 (2.35:1) at 23.976 fps, x264, ~5806 kbps avg, 0.348bit/pixel
Формат аудио:
Аудио#1:: Russian: 48 kHz/16-bit, DTS, 3/2 (L,C,R,l,r) + LFE ch, ~1536.00 kbps avg |Дубляж, Blu-ray|
Аудио#2:: English: 48 kHz, DTS, 3/2 (L,C,R,l,r) + LFE ch, ~1536.00 kbps avg
Аудио#3: : English: 48 kHz, AC3, 2/0 (L,R) ch, ~192.00 kbps avg |Commentary with Director John Carpenter and Actor Jared Harris|


MediaInfo ▼
General
Unique ID : 248752659103629701313491060651123330317 (0xBB2404FD62CEE476B00FE4CA6BC4CD0D)
Complete name : /Torrents/home/dreamcatcherr/data/Palata.2010.720p.BluRay.Rus.Eng.HDCLUB.mkv
Format : Matroska
Format version : Version 2
File size : 5.71 GiB
Duration : 1h 28mn
Overall bit rate : 9 200 Kbps
Movie name : Palata (2010) - Release for HDCLUB
Encoded date : UTC 2011-11-25 18:32:02
Writing application : mkvmerge v4.9.1 (Ich will) сборка от Jul 11 2011 23:53:15
Writing library : libebml v1.2.1 + libmatroska v1.1.1

Video
ID : 1
Format : AVC
Format/Info : Advanced Video Codec
Format profile : [email protected]
Format settings, CABAC : Yes
Format settings, ReFrames : 8 frames
Codec ID : V_MPEG4/ISO/AVC
Duration : 1h 28mn
Bit rate : 5 806 Kbps
Width : 1 280 pixels
Height : 544 pixels
Display aspect ratio : 2.35:1
Frame rate : 23.976 fps
Color space : YUV
Chroma subsampling : 4:2:0
Bit depth : 8 bits
Scan type : Progressive
Bits/(Pixel*Frame) : 0.348
Stream size : 3.61 GiB (63%)
Title : Release for HDCLUB
Writing library : x264 core 92 r1510 33d382a
Encoding settings : cabac=1 / ref=8 / deblock=1:-3:-3 / analyse=0x3:0x133 / me=umh / subme=10 / psy=1 / psy_rd=1.00:0.00 / mixed_ref=1 / me_range=48 / chroma_me=1 / trellis=2 / 8x8dct=1 / cqm=0 / deadzone=21,11 / fast_pskip=1 / chroma_qp_offset=-2 / threads=3 / sliced_threads=0 / nr=0 / decimate=1 / interlaced=0 / constrained_intra=0 / bframes=8 / b_pyramid=2 / b_adapt=2 / b_bias=0 / direct=3 / wpredb=1 / wpredp=2 / keyint=240 / keyint_min=24 / scenecut=40 / intra_refresh=0 / rc_lookahead=60 / rc=crf / mbtree=1 / crf=17.0 / qcomp=0.60 / qpmin=10 / qpmax=51 / qpstep=4 / ip_ratio=1.40 / aq=1:1.00
Language : English
Default : Yes
Forced : No

Audio #1
ID : 2
Format : DTS
Format/Info : Digital Theater Systems
Codec ID : A_DTS
Duration : 1h 28mn
Bit rate mode : Constant
Bit rate : 1 510 Kbps
Channel(s) : 6 channels
Channel positions : Front: L C R, Side: L R, LFE
Sampling rate : 48.0 KHz
Bit depth : 16 bits
Compression mode : Lossy
Stream size : 960 MiB (16%)
Title : (Dublyazh)
Language : Russian
Default : Yes
Forced : No

Audio #2
ID : 3
Format : DTS
Format/Info : Digital Theater Systems
Codec ID : A_DTS
Duration : 1h 28mn
Bit rate mode : Constant
Bit rate : 1 510 Kbps
Channel(s) : 6 channels
Channel positions : Front: L C R, Side: L R, LFE
Sampling rate : 48.0 KHz
Bit depth : 24 bits
Compression mode : Lossy
Stream size : 960 MiB (16%
a69f8434f35e800d031fc8ea88c0d4b50556e4ceПалата / The Ward (Джон Карпентер , ужасы, триллер, 2010) [BDRip 720p, Профессиональный (полное дублирование) + оригинал + комментарии + субтитры] Палата / The Ward (Джон Карпентер , ужасы, триллер, 2010) [BDRip 720p, Профессиональный (полное дублирование) + оригинал + комментарии + субтитры] " />

Аплоадер: Админ, дата: 13-04-2012, 16:11, торрент скачан: 359 раз

Понравилась раздача? Посмотрите эти:
  • Четвертый вид / The Fourth Kind (Олатунде Осунсанми, ужасы, фантастика, 200 ...
  • Палата / The Ward (Джон Карпентер, Ужасы, триллер, 2010) [BDRip-AVC, Профес ...
  • Смерть на похоронах / Death at a Funeral (Нил ЛаБут, комедия, 2010) [BDRip ...
  • Цель Номер Один / Zero Dark Thirty (Кэтрин Бигелоу, Триллер, драма, история ...
  • Жизнь Пи / Life Of Pi (Энг Ли, Драма, приключения, 2012) [BDRip 720p, Профе ...
  • Суррогат / The Sessions (Бен Луин, драма, 2012) [BDRip 720p, Профессиональн ...
  • Военные Игры / War Games: At The End Of The Day ( Козимо Алема, триллер, у ...
  • Палата / The Ward (Джон Карпентер / John Carpenter, ужасы, триллер, 2010) [ ...
  • Фантомы / Shutter (Масаюки Очиай, ужасы, триллер, детектив, 2008) [BDRip-AV ...
  • Исходный код / Source Code (Дункан Джонс, фантастика, боевик, триллер, 2011 ...
  • Чаббчаббы спасают Рождество / The Chubbchubbs Save Xmas (Коуди Камерон, мул ...
  • Дом грёз / Dream House (Джим Шеридан, триллер, драма, детектив, 2011) [BDRi ...
  • Паранормальное явление 3 / Paranormal Activity 3 [Theatrical Cut] (Генри Дж ...
  • Другой мир: Пробуждение / Underworld: Awakening (Монс Морлинд, Бьёрн Стейн, ...
  • Значит, война / This Means War (МакДжи, боевик, мелодрама, комедия, 2012) [ ...
  • Ворон / The Raven (Джеймс МакТиг, Триллер, детектив, 2012) [BDRip 720p, Дуб ...
  • Пираньи 3DD / Piranha 3DD (Джон Гулажер, ужасы, триллер, комедия, 2012) [BD ...
  • Семь футов / Seven Below (Кевин Каррауэй, Ужасы, триллер, 2012) [BDRip 720p ...
  • Хижина в лесу / The Cabin in the Woods (Дрю Годдард, Ужасы, фантастика, три ...
  • Коллекционер 2 / The Collection (Маркус Данстэн, ужасы, боевик, триллер, 20 ...
  • Палата / The Ward (Джон Карпентер / John Carpenter, ужасы, триллер, 2010) [ ...
  • [3D] Шаг вперед / Step Up (Джон М. Чу, драма, мелодрама, музыка, 2010) [B ...
  • Палата / The Ward (Джон Карпентер / John Carpenter, ужасы, триллер, 2010) [ ...
  • Палата / The Ward (Джон Карпентер, ужасы, триллер, 2010) [BDRip, Дублирован ...
  • Палата / The Ward (Джон Карпентер, ужасы, триллер, 2010) [BDRemux 1080p, Пр ...
  • Информация
    Посетители, находящиеся в группе Гости, не могут оставлять комментарии к данной публикации.