вход на сайт

Имя пользователя :
Пароль :

Восстановление пароля Регистрация
Американский пирог 3: Свадьба / American Wedding (Джесси Дилан, мелодрама, 2003) [HDTVRip 720p, Профессиональный (дублированный), профессиональный (двухголосый закадровый x2 ,авторский (одноголосый) + оригинал]
Рейтинг:
(голосов: 1)



[img]{THEME}/images/logopost.png[/img]



Американский пирог 3: Свадьба / American Wedding

Год выпуска: 2003
Страна: США, Германия
Производство: Universal Picture
Жанр: мелодрама, комедия

Режиссёр: Джесси Дилан / Jesse Dylan
В ролях:Джейсон Биггз / Jason Biggs, Шонн Уильям Скотт / Seann William Scott, Элисон Хэннигэн / Alyson Hannigan, Эдди Кэй Томас / Eddie Kaye Thomas, Томас Йен Николас / Thomas Ian Nicholas, Джэньюэри Джонс / January Jones, Юджин Леви / Eugene Levy

Перевод: Профессиональный (дублированный)[Присутствуют вставки двухголосого перевода от Премьер-Мультимедиа], профессиональный (двухголосый закадровый)[Премьер-Мультимедиа], профессиональный (двухголосый закадровый), авторский (одноголосый закадровый) [Антон Карповский] + оригинал
Субтитры: Eng

Описание: Джим и Мишель решили пожениться! Ведь свадьба — штука важная, и готовиться к ней надо основательно и серьёзно, тем более, если шафером у жениха собирается стать сам Стифлер! В обширную предсвадебную программу включены: холостяцкая вечеринка со стриптизёршами; соблазнение женщин преклонного возраста в кромешной тьме; украшение свадебного торта лобковыми волосами; очередное сексуальное родео Финча с мамашей Стифлера, как, впрочем, и сам Стифлер — новоявленная гей-икона, прирождённый танцор-диско, тестостероновый титан и главная звезда торжества! Джим и Мишель приглашают Вас на свою свадьбу, скучать на которой Вам точно не придётся!



Доп. информация: В левом верхнем углу имеется эмблема телеканала.

MediaInfo ▼General
Полное имя : D:MoviesАмериканский Пирог 2 (2001)American_Pie.The_Wedding.mkv
Формат : Matroska
Версия формата : Version 2
Размер файла : 4.23 GiB
Продолжительность : 1h 29mn
Общий поток : 6 771 Kbps
Дата кодирования : UTC 2011-08-29 12:39:49
Программа кодирования : mkvmerge v4.9.1 (Ich will) сборка от Jul 11 2011 23:53:15
Библиотека кодирования : libebml v1.2.1 + libmatroska v1.1.1

Video
Идентификатор : 1
Формат : AVC
Формат/Информация : Advanced Video Codec
Профиль формата : [email protected]
Параметр CABAC формата : Yes
Параметр ReFrames формата : 4 frames
Идентификатор кодека : V_MPEG4/ISO/AVC
Продолжительность : 1h 29mn
Битрейт : 5 521 Kbps
Ширина : 1 280 pixels
Высота : 720 pixels
Соотношение сторон : 16:9
Частота кадров : 25.000 fps
Цветовое пространство : YUV
Субдискретизация насыщенности : 4:2:0
Битовая глубина : 8 bits
Тип развёртки : Progressive
Бит/(Пиксели*Кадры) : 0.240
Размер потока : 3.36 GiB (80%)
Библиотека кодирования : x264 core 116 r2019 9cc407d
Настройки программы : cabac=1 / ref=4 / deblock=1:0:0 / analyse=0x3:0x133 / me=umh / subme=10 / psy=1 / psy_rd=1.00:0.00 / mixed_ref=1 / me_range=16 / chroma_me=1 / trellis=2 / 8x8dct=1 / cqm=0 / deadzone=21,11 / fast_pskip=1 / chroma_qp_offset=-2 / threads=6 / sliced_threads=0 / nr=0 / decimate=1 / interlaced=0 / bluray_compat=0 / constrained_intra=0 / bframes=3 / b_pyramid=0 / b_adapt=2 / b_bias=0 / direct=1 / weightb=1 / open_gop=0 / weightp=2 / keyint=250 / keyint_min=25 / scenecut=40 / intra_refresh=0 / rc_lookahead=40 / rc=2pass / mbtree=1 / bitrate=5521 / ratetol=1.0 / qcomp=0.60 / qpmin=0 / qpmax=69 / qpstep=4 / cplxblur=20.0 / qblur=0.5 / ip_ratio=1.40 / aq=1:1.00
Язык : English
Default : Yes
Forced : No

Audio #1
Идентификатор : 2
Формат : AC-3
Формат/Информация : Audio Coding 3
Расширение режима : CM (complete main)
Идентификатор кодека : A_AC3
Продолжительность : 1h 29mn
Вид битрейта : Constant
Битрейт : 384 Kbps
Каналы : 6 channels
Расположение каналов : Front: L C R, Side: L R, LFE
Частота : 48.0 KHz
Битовая глубина : 16 bits
Метод сжатия : Lossy
Размер потока : 245 MiB (6%)
Заголовок : Dub
Язык : Russian
Default : Yes
Forced : No

Audio #2
Идентификатор : 3
Формат : AC-3
Формат/Информация : Audio Coding 3
Расширение режима : CM (complete main)
Идентификатор кодека : A_AC3
Продолжительность : 1h 29mn
Вид битрейта : Constant
987aae7798f722b1849c43c06a4035506be86d74Американский пирог 3: Свадьба / American Wedding (Джесси Дилан, мелодрама, 2003) [HDTVRip 720p, Профессиональный (дублированный), профессиональный (двухголосый закадровый x2 ,авторский (одноголосый) + оригинал] Американский пирог 3: Свадьба / American Wedding (Джесси Дилан, мелодрама, 2003) [HDTVRip 720p, Профессиональный (дублированный), профессиональный (двухголосый закадровый x2 ,авторский (одноголосый) + оригинал] " />

Аплоадер: Админ, дата: 8-04-2012, 16:47, торрент скачан: 359 раз

Понравилась раздача? Посмотрите эти:
  • Фрилансеры / Freelancers (Джесси Терреро, боевик, драма, криминал, детектив ...
  • [NG] Комета века / Comet of the century (документальный, 2013) [HDTVRip-AVC ...
  • 11.6 / 11.6 (Филипп Годо, Драма, триллер, криминал, 2013) [BDRip-AVC, Профе ...
  • Мальчишник: Часть III / The Hangover Part III (Тодд Филлипс, комедия, 2013) ...
  • Башня / The Tower (Чи-хун Ким, драма, 2012) [BDRip-AVC, Любительский (двухг ...
  • Больше чем мёд / More Than Honey (документальный, 2012) [BDRip 720p, Профес ...
  • Голливудский мусор / Garbage (Филипп Волкен, драма, комедия, 2013) [HDTVRip ...
  • [NG] Война львов / Lion Battle Zone (документальный, 2011) [HDTVRip-AVC, Пр ...
  • Даю год / I Give It a Year (Дэн Мазер, мелодрама, комедия, 2012) [BDRip-AVC ...
  • Дикий запад. Кино и реальность / The Wild And The West (документальный, 200 ...
  • Ну ты и придурок! / You Stupid Man (Брайан Барнс, мелодрама, комедия, 2002) ...
  • Суррогат / The Sessions (Бен Луин, Драма, 2012) [BDRip-AVC, Профессиональны ...
  • Ошибка телохранителя / The Girl from the Naked Eye (Дэвид Рен, боевик, трил ...
  • Думай, как мужчина / Think Like a Man (Тим Стори, Мелодрама, комедия, 2012) ...
  • Сначала любовь, потом свадьба / Love, Wedding, Marriage (Дермот Малруни, ко ...
  • 11:14 (Одиннадцать четырнадцать) / 11:14 (Elevenfourteen) (Грег Маркс, трил ...
  • Американский пирог 3: Свадьба (Полная версия) / American Wedding (UnCut) (Д ...
  • Американский пирог: Все в сборе / American Reunion (Джон Харвитц, Хейден Ш ...
  • Эд Вуд / Ed Wood (Тим Бёртон, драма, комедия, биография, 1994) [BDRip-AVC, ...
  • Резня /Carnage (Роман Полански, драма, комедия, 2011) [BDRip 1080p, Дублиро ...
  • [NG] Гитлеровские лагеря смерти / Hitlers G.I. Death Camp (документальный, ...
  • Преследование / Слежка / Following (Кристофер Нолан, триллер, драма, кримин ...
  • Американский Пирог 3:Свадьба / American Wedding (Джесси Дилан,2003 г., Коме ...
  • Американский пирог 3: Свадьба / American Wedding (Джесси Дилан, мелодрама, ...
  • Американский пирог 3: Свадьба / American Wedding (Джесси Дилан,комедия, 200 ...
  • Информация
    Посетители, находящиеся в группе Гости, не могут оставлять комментарии к данной публикации.