вход на сайт

Имя пользователя :
Пароль :

Восстановление пароля Регистрация
Ронин / Ronin (Джон Франкенхаймер, боевик, триллер, драма, криминал, 1998) [BDRip 720p, Профессиональный (многоголосый закадровый)x4 + Авторский (Одноголосый закадровый)x2 + Оригинал + Субтитры]
Рейтинг:
(голосов: 1)



[img]{THEME}/images/logopost.png[/img]



Ронин / Ronin

Cлоган: «Anyone is an enemy for a price.»


Год выпуска: 1998
Страна: США, Великобритания
Выпущено: FGM Entertainment, United Artists, United Artists Corporation Ltd.
Жанр: боевик, триллер, драма, криминал

Режиссёр: Джон Франкенхаймер
В главных ролях:Роберт Де Ниро, Жан Рено, Наташа МакЭлхоун, Стеллан Скарсгард, Шон Бин, Джонатан Прайс

Перевод: Профессиональный (многоголосый закадровый)x4 + Авторский (Одноголосый закадровый)x2 + Оригинал
Субтитры: Russian, English, Bulgarian, Arabic, Chinese, Czech, Danish, Finnish, French, Greek, Polish, Romanian, Spanish, Swedish, Vietnamese - SRT, English (надписи и проч.), English (полные)

О фильме: Хотя холодная война давно закончена, тайные наемники, чьи навыки в слежке, шпионаже и силовых схватках буквально легендарны, остаются востребованными при новом мировом порядке и всегда находят высокооплачиваемую работу. Некий таинственный клиент собирает в Париже команду таких «платных оперативников», известных как «Ронины», для похищения сверхсекретного портфеля.

Вскоре выясняется, что это, на первый взгляд простое, задание почти невыполнимо: та же цена обещана за тот же портфель еще нескольким нелегальным группам.

Чтобы справиться с работой, бывший агент ЦРУ по кличке «Сэм» и его наспех сколоченный отряд должны делать то, чего им не приходилось делать никогда раньше: довериться друг другу…



IMDB: рейтинг7.2/10 (80 904 votes)
КиноПоиск: рейтинг 7.4/10 (6 565 голосов)


MediaInfo ▼Text
General
Unique ID : 187439103491310034158435871863919903678 (0x8D03754DA9DC2EAC91B482F72F8083BE)
Complete name : Ronin.1998.BDRip.720p.HiDt.mkv
Format : Matroska
File size : 7.93 GiB
Duration : 2h 1mn
Overall bit rate : 9 334 Kbps
Movie name : Ronin 1998 BDRip 720p -HiDt
Encoded date : UTC 2011-04-21 10:29:02
Writing application : mkvmerge v4.6.0 (Still Crazy After All These Years) built on Mar 10 2011 02:50:32
Writing library : libebml v1.2.0 + libmatroska v1.1.0

Video
ID : 1
Format : AVC
Format/Info : Advanced Video Codec
Format profile : [email protected]
Format settings, CABAC : Yes
Format settings, ReFrames : 7 frames
Codec ID : V_MPEG4/ISO/AVC
Duration : 2h 1mn
Bit rate : 4 905 Kbps
Width : 1 280 pixels
Height : 542 pixels
Display aspect ratio : 2.35:1
Frame rate : 23.976 fps
Color space : YUV
Chroma subsampling : 4:2:0
Bit depth : 8 bits
Scan type : Progressive
Bits/(Pixel*Frame) : 0.295
Stream size : 4.01 GiB (51%)
Title : x264
Writing library : x264 core 107 r1772 c9dad9e
Encoding settings : cabac=1 / ref=8 / deblock=1:-3:-3 / analyse=0x3:0x113 / me=tesa / subme=10 / psy=1 / psy_rd=0.90:0.20 / mixed_ref=1 / me_range=32 / chroma_me=1 / trellis=2 / 8x8dct=1 / cqm=0 / deadzone=21,11 / fast_pskip=0 / chroma_qp_offset=-3 / threads=6 / sliced_threads=0 / nr=0 / decimate=1 / interlaced=0 / constrained_intra=0 / bframes=6 / b_pyramid=1 / b_adapt=2 / b_bias=0 / direct=3 / weightb=1 / open_gop=0 / weightp=2 / keyint=250 / keyint_min=23 / scenecut=40 / intra_refresh=0 / rc_lookahead=80 / rc=2pass / mbtree=1 / bitrate=4905 / ratetol=1.0 / qcomp=0.60 / qpmin=10 / qpmax=51 / qpstep=4 / cplxblur=20.0 / qblur=0.5 / ip_ratio=1.40 / aq=1:1.10
Language : English

Audio #1
ID : 2
Format : DTS
Format/Info : Digital Theater Systems
Codec ID : A_DTS
Duration : 2h 1mn
Bit rate mode : Constant
Bit rate : 755 Kbps
Channel(s) : 6 channels
Channel positions : Front: L C R, Side: L R, LFE
Sampling rate : 48.0 KHz
Bit depth : 24 bits
Compression mode : Lossy
Stream size : 656 MiB (8%)
Title : DTS; 6ch; 768 kbps (MVO S.R.I)
Language : Russian

Audio #2
ID : 3
Format : DTS
Format/Info : Digital Theater Systems
Codec ID : A_DTS
Duration : 2h 1mn
Bit rate mode : Constant
Bit rate : 755 Kbps
Channel(s) : 6 channels
Channel positions : Front: L C R, Side: L R, LFE
Sampling rate : 48.0 KHz
Bit depth : 24 bits
Compression mode : Lossy
Stream size : 656 MiB (8%)
Title : DTS; 6ch; 768 kbps (MVO HomeVide
45386d210130050228a53be8f5487adb7d6e1b54Ронин / Ronin (Джон Франкенхаймер, боевик, триллер, драма, криминал, 1998) [BDRip 720p, Профессиональный (многоголосый закадровый)x4 + Авторский (Одноголосый закадровый)x2 + Оригинал + Субтитры] Ронин / Ronin (Джон Франкенхаймер, боевик, триллер, драма, криминал, 1998) [BDRip 720p, Профессиональный (многоголосый закадровый)x4 + Авторский (Одноголосый закадровый)x2 + Оригинал + Субтитры] " />

Аплоадер: Админ, дата: 7-04-2012, 09:22, торрент скачан: 359 раз

Понравилась раздача? Посмотрите эти:
  • Погнали! / Getaway (Кортни Соломон, боевик, криминал, 2013) [BDRip 720p, Пр ...
  • Верное дельце / Une pure affaire (Александр Коффре, Боевик, Комедия, Кримин ...
  • Ронин / Ronin (Джон Франкенхаймер, боевик, триллер, драма, криминал, 1998) ...
  • Добро пожаловать в капкан / Welcome to the Punch (Эрен Криви, боевик, трил ...
  • Ордер на смерть / Death warrant (Деран Сарафян, Боевик, драма, криминал, де ...
  • Водитель / The Driver (Уолтер Хилл, Боевик, триллер, драма, криминал, 1978) ...
  • Суррогат / The Sessions (Бен Луин, драма, 2012) [BDRip 720p, Профессиональн ...
  • Убить по расписанию / Ticking Clock (Эрни Барбараш, фантастика, боевик, три ...
  • Ронин / Ronin (Джон Франкенхаймер / John Frankenheimer, боевик, триллер, др ...
  • Ронин / Ronin (Джон Франкенхаймер / John Frankenheimer, боевик, триллер, др ...
  • Ронин / Ronin (Джон Франкенхаймер / John Frankenheimer, боевик, триллер, др ...
  • Повторяющие / Repeaters (Карл Бессай, фантастика, боевик, триллер, драма, к ...
  • Охота за "Красным Октябрём" / The Hunt for "Red October" (Джон МакТирнан, б ...
  • Город воров [Театральная версия] / The Town [Theatrical cut] (Бен Аффлек, т ...
  • Восстание планеты обезьян / Rise of the Planet of the Apes (Руперт Уайатт, ...
  • Красавчик Джонни / Johnny Handsome (Уолтер Хилл, Триллер, драма, криминал, ...
  • Рыжий пес / Red Dog (Крив Стендерс, драма, комедия, семейный, 2011) [BDRip ...
  • Китайский квартал / Chinatown (Роман Полански, Триллер, драма, криминал, де ...
  • Такси 2 / Taxi 2 (Жерар Кравчик, боевик, комедия, криминал, 2000) [BDRip 72 ...
  • Код доступа «София» / Sofia / Assassins Bullet (Айзек Флорентайн, Боевик, т ...
  • Особо опасны / Savages [UNRATED] (Оливер Стоун, Триллер, драма, криминал, 2 ...
  • Ронин / Ronin (Джон Франкенхаймер, боевик, триллер, криминал, 1998) [BDRip, ...
  • Ронин / Ronin (Джон Франкенхаймер, боевик, триллер, криминал, 1998г.) [Blu- ...
  • Ронин / Ronin (Джон Франкенхаймер, Боевик, Триллер, Криминал, 1998) [BDRip, ...
  • Ронин / Ronin (Джон Франкенхаймер, боевик, 1998) [HDRip, профессиональный ( ...
  • Информация
    Посетители, находящиеся в группе Гости, не могут оставлять комментарии к данной публикации.