вход на сайт

Имя пользователя :
Пароль :

Восстановление пароля Регистрация
Прибавьте Громкость / Врубай на всю катушку / Pump Up The Volume (Аллен Мойл, Драма, Комедия, 1990) [HDTVRip 720p, Профессиональный (многоголосый, закадровый), Любительский (одноголосый) + Оригинал]
Рейтинг:
(голосов: 1)



[img]{THEME}/images/logopost.png[/img]



Прибавьте Громкость / Врубай на всю катушку / Pump Up The Volume

Год выпуска: 1990
Страна: США, Канада
Производство: New Line Cinema, SC Entertainment
Жанр: Драма, Комедия

Режиссёр: Аллен Мойл
В ролях: Кристиан Слейтер, Скотт Полин, Эллен Грин, Саманта Мэтис, Крис Джейкобс, Энни Росс, Мими Кеннеди, Шерил Поллак

Перевод: Профессиональный (многоголосый, закадровый) [СТС]
Перевод (2): Профессиональный (многоголосый, закадровый) [ОРТ]
Перевод (3): Любительский (одноголосый) [Дмитрий Стасюк]
Перевод (4): Оригинал
Субтитры: нет
Описание: ▼Днем Марк Хантер болезненно стеснительный новичок в маленьком городке в Аризоне. Но ночью он Крутой Гарри - циничный, не подверженный цензуре DJ пиратской радиостанции. Ставший кумиром для учеников своей школы (даже не подозревавших о том кто он на самом деле), Гарри становится героем благодаря своим отчаянно смешным монологам о сексе, любви и rocknroll-е. Но когда он раскрывает коррумпированность директора школы, она вызывает ФКС чтобы заткнуть Гарри рот. Возмутительный мятежник, у которого есть повод, Слейтер дает блестящее представление в качестве вынужденного героя, призывающего своих соучеников найти свои собственные голоса сопротивления и индивидуальности.
7.897
7.00


Качество: HDTVRip 720p
Продолжительность: 01:37:43

Формат: MKV
Видео кодек: H.264
Аудио кодек: AC-3
Видео: 1 280 x 688 (1.860), ~6 543 Kbps, 23.976 fps, 0.310 bit/pixels
Аудио: Русский DD 2.0, 48 kHz, 2 channels, 192 kbps (СТС)
Аудио: Русский DD 2.0, 48 kHz, 2 channels, 192 kbps (ОРТ)
Аудио: Русский DD 5.1, 48 kHz, 6 channels, 448 kbps (Дмитрий Стасюк)
Аудио: Английский DD 5.1, 48 kHz, 6 channels, 384 kbps
MediaInfo: ▼Complete name : Pump.Up.The.Volume.HDTVRip.720p.x264.MIF.mkv
Format : Matroska
File size : 5.63 GiB
Duration : 1h 41mn
Overall bit rate : 7 917 Kbps
Encoded date : UTC 2012-03-19 19:02:17
Writing application : mkvmerge v4.9.1 (Ich will) сборка от Jul 11 2011 23:53:15
Writing library : libebml v1.2.1 + libmatroska v1.1.1

Video
ID : 1
Format : AVC
Format/Info : Advanced Video Codec
Format profile : [email protected]
Format settings, CABAC : Yes
Format settings, ReFrames : 5 frames
Codec ID : V_MPEG4/ISO/AVC
Duration : 1h 41mn
Bit rate : 6 543 Kbps
Nominal bit rate : 6 999 Kbps
Width : 1 280 pixels
Height : 688 pixels
Display aspect ratio : 1.860
Frame rate : 23.976 fps
Color space : YUV
Chroma subsampling : 4:2:0
Bit depth : 8 bits
Scan type : Progressive
Bits/(Pixel*Frame) : 0.310
Stream size : 4.65 GiB (83%)
Writing library : x264 core 116 r2074 2641b9e
Encoding settings : cabac=1 / ref=5 / deblock=1:0:0 / analyse=0x3:0x113 / me=umh / subme=9 / psy=1 / psy_rd=1.00:0.00 / mixed_ref=1 / me_range=16 / chroma_me=1 / trellis=2 / 8x8dct=1 / cqm=0 / deadzone=21,11 / fast_pskip=1 / chroma_qp_offset=-2 / threads=6 / sliced_threads=0 / nr=0 / decimate=1 / interlaced=0 / bluray_compat=0 / constrained_intra=0 / bframes=3 / b_pyramid=2 / b_adapt=1 / b_bias=0 / direct=3 / weightb=1 / open_gop=0 / weightp=2 / keyint=250 / keyint_min=23 / scenecut=40 / intra_refresh=0 / rc_lookahead=50 / rc=2pass / mbtree=1 / bitrate=6999 / ratetol=1.0 / qcomp=0.60 / qpmin=10 / qpmax=51 / qpstep=4 / cplxblur=20.0 / qblur=0.5 / ip_ratio=1.40 / aq=1:1.00 / zones=555,666,q=26
Language : English

Audio #1
ID : 2
Format : AC-3
Format/Info : Audio Coding 3
Mode extension : CM (complete main)
Codec ID : A_AC3
Duration : 1h 41mn
Bit rate mode : Constant
Bit rate : 384 Kbps
Channel(s) : 6 channels
Channel positions : Front: L C R, Side: L R, LFE
Sampling rate : 48.0 KHz
Bit depth : 16 bits
Compression mode : Lossy
Stream size : 280 MiB (5%)
Title : DD 5.1
Language : English

Audio #2
ID : 3
Format : AC-3
Format/Info : Audio Coding 3
Mode extension : CM (complete main)
Codec ID : A_AC3
Duration : 1h 41mn
Bit rate mode : Constant
Bit rate : 448 Kbps
Channel(s) : 6 channels
Ch
6ee00def723b881cdf5e9429a8ae4865ffd2928fПрибавьте Громкость / Врубай на всю катушку / Pump Up The Volume (Аллен Мойл, Драма, Комедия, 1990) [HDTVRip 720p, Профессиональный (многоголосый, закадровый), Любительский (одноголосый) + Оригинал] Прибавьте Громкость / Врубай на всю катушку / Pump Up The Volume (Аллен Мойл, Драма, Комедия, 1990) [HDTVRip 720p, Профессиональный (многоголосый, закадровый), Любительский (одноголосый) + Оригинал] " />

Аплоадер: Админ, дата: 2-04-2012, 17:42, торрент скачан: 359 раз

Понравилась раздача? Посмотрите эти:
  • Погнали! / Getaway (Кортни Соломон, боевик, криминал, 2013) [BDRip 720p, Пр ...
  • Ледяной / The Iceman (Ариэль Вромен, драма, криминал, биография, 2013) [BDR ...
  • Чемпионат Испании 2012-13 / 34-й тур / Обзор Тура / НТВ+ [06.05.2013, 720p, ...
  • Отдел 13 / Diamant 13 (Гайллз Бэхат, Боевик, триллер, криминал, 2009) [BDRi ...
  • Водитель / The Driver (Уолтер Хилл, Боевик, триллер, драма, криминал, 1978) ...
  • Убить по расписанию / Ticking Clock (Эрни Барбараш, фантастика, боевик, три ...
  • Шелуха / Husk (Бретт Симмонс, ужасы, триллер, 2011) [BDRip 720p, Профессион ...
  • Цельнометаллическая оболочка / Full Metal Jacket (Стэнли Кубрик, драма, вое ...
  • Мартовские иды / The Ides of March (Джордж Клуни / George Clooney, драма, 2 ...
  • Идеальный Голос / Pitch Perfect (Джейсон Мур, Комедия, музыка, 2012) [BDRip ...
  • Бомж с дробовиком / Hobo with a Shotgun (Джейсон Айзенер / Jason Eisener, С ...
  • Геркулес / Hercules (Рон Клементс, Джон Маскер, Мультфильм, 1997 г.)[HDTVRi ...
  • Мальчишник 2: Из Вегаса в Бангкок / The Hangover Part II (Тодд Филлипс, ком ...
  • Один Дома / Home Alone (Крис Коламбус, комедия, приключения, семейный, 1990 ...
  • Далеко-далеко / Far and Away (Рон Ховард, драма, мелодрама, приключения, ве ...
  • Небесные охотники. Мир стрекоз / Libellen. Die Himmelsjaeger (Курт Мюндл, Д ...
  • Доля ангелов / The Angels Share (Кен Лоуч, Драма, комедия, 2012) [BDRip 720 ...
  • Футбольный клуб / Чемпионат Европы 2012 / НТВ+ [Футбол, 08.06.2012, HDTVRip ...
  • Чемпионат Европы 2012 / 1/4 финала / Чехия - Португалия / Спорт 1 HD [Футбо ...
  • Чемпионат Европы 2012 / 1/2 финала / Португалия - Испания / Спорт 1 HD [Фу ...
  • Чемпионат Европы 2012 / 1/2 финала / Германия - Италия / Спорт 1 HD [Футбо ...
  • Формула 1. Сезон 2012. Этап 13 из 20. Гран-При Италии, Квалификация. [2012 ...
  • Mylene Farmer / Du Temps [2011, Pop, HDTVRip]
  • Mylene Farmer / Bleu Noir [2011, Pop, HDTVRip]
  • PBS: Природа – Гималаи / PBS: Nature – The Himalayas (Крис Морган, Докумен ...
  • Информация
    Посетители, находящиеся в группе Гости, не могут оставлять комментарии к данной публикации.