вход на сайт

Имя пользователя :
Пароль :

Восстановление пароля Регистрация
Убойное Рождество Гарольда и Кумара / A Very Harold & Kumar 3D Christmas (Тодд Штраус-Шульсон, комедия, 2011) [BDRip 720p, Профессиональный (двухголосый, закадровый) (Кубик в кубе) + оригинал + субтитры)]
Рейтинг:
(голосов: 1)



[img]{THEME}/images/logopost.png[/img]



Убойное Рождество Гарольда и Кумара / A Very Harold & Kumar 3D Christmas
«Christmas comes prematurely»

Год выпуска: 2011
Страна: США
Производство:Kingsgate Films, Mandate Pictures
Жанр: комедия


Режиссер: Тодд Штраус-Шульсон

В ролях:

Джон Чо (Harold), Кэл Пенн (Kumar), Нил Патрик Харрис (играет самого себя), Пэттон Освальт (Mall Santa), Изабелла Жельняк (Caren), Остин Бикел (Kid in Line), Инга Р. Уилсон (Mom in Line), Бобби Ли (Kenneth Park), Томас Леннон (Todd), Амир Блюменфилд (Adrian), Паула Гарсес (Maria), Дэнни Трехо (Mr. Perez)

Перевод: профессиональный (двухголосый, закадровый) + оригинал
Субтитры: Russian, English

Описание: Прошло шесть лет после приключения в проливе Гуантанамо. На этот раз закадычные друзья Гарольд Ли и Кумар Пател сорвали праздник, случайно спалив дотла призовую рождественскую ель тестя Гарольда.





Качество: BDRip 720p
Продолжительность: 01:29:39

Формат: MKV
Видео кодек: x264
Аудио кодек: AC3
Видео:1280x534 (2.40:1) at 23.976 fps, [email protected], ~7500 kbps avg, 0,458 bit/pixel
Аудио#1: Russian; 48 kHz, AC3, 3/2 (L,C,R,l,r) + LFE ch, ~640 kbps avg|Профессиональный (двухголосый закадровый), Кубик в кубе|
Аудио#2: English; 48 kHz, AC3, 3/2 (L,C,R,l,r) + LFE ch, ~640 kbps avg

"Media Info" ▼TextGeneral
Unique ID : 249841318594406422752522372041836870590 (0xBBF5B00BF7C93F80BE90DC1891C83BBE)
Complete name : /Torrents/home/crazygreat/data/A.Very.Harold.&.Kumar.3D.Christmas.2011.Blu-ray.720p.x264-NiP.Rus.Eng.mkv
Format : Matroska
Format version : Version 2
File size : 5.50 GiB
Duration : 1h 29mn
Overall bit rate : 8 779 Kbps
Movie name : HANSMER
Encoded date : UTC 2012-03-21 12:56:47
Writing application : mkvmerge v5.4.0 (Piper) built on Mar 10 2012 13:34:39
Writing library : libebml v1.2.3 + libmatroska v1.3.0

Video
ID : 1
Format : AVC
Format/Info : Advanced Video Codec
Format profile : [email protected]
Format settings, CABAC : Yes
Format settings, ReFrames : 12 frames
Codec ID : V_MPEG4/ISO/AVC
Duration : 1h 29mn
Bit rate : 7 500 Kbps
Width : 1 280 pixels
Height : 534 pixels
Display aspect ratio : 2.40:1
Frame rate : 23.976 fps
Color space : YUV
Chroma subsampling : 4:2:0
Bit depth : 8 bits
Scan type : Progressive
Bits/(Pixel*Frame) : 0.458
Stream size : 4.59 GiB (83%)
Title : A.Very.Harold.&.Kumar.3D.Christmas.2011.Blu-ray.720p.x264-NiP
Writing library : x264 core 122 r2184 5c85e0a
Encoding settings : cabac=1 / ref=12 / deblock=1:-3:-3 / analyse=0x3:0x113 / me=tesa / subme=11 / psy=1 / psy_rd=0.90:0.00 / mixed_ref=1 / me_range=24 / chroma_me=1 / trellis=2 / 8x8dct=1 / cqm=0 / deadzone=21,11 / fast_pskip=0 / chroma_qp_offset=-2 / threads=12 / sliced_threads=0 / nr=0 / decimate=0 / interlaced=0 / bluray_compat=0 / constrained_intra=0 / bframes=8 / b_pyramid=2 / b_adapt=2 / b_bias=0 / direct=3 / weightb=1 / open_gop=0 / weightp=2 / keyint=240 / keyint_min=24 / scenecut=40 / intra_refresh=0 / rc_lookahead=240 / rc=2pass / mbtree=1 / bitrate=7500 / ratetol=1.0 / qcomp=0.80 / qpmin=0 / qpmax=69 / qpstep=4 / cplxblur=20.0 / qblur=0.5 / vbv_maxrate=50000 / vbv_bufsize=62500 / nal_hrd=none / ip_ratio=1.40 / aq=1:0.90
Language : English
Default : Yes
Forced : No
Matrix coefficients : BT.709-5, BT.1361, IEC 61966-2-4 709, SMPTE RP177

Audio #1
ID : 2
Format : AC-3
Format/Info : Audio Coding 3
Mode extension : CM (complete main)
Codec ID : A_AC3
Duration : 1h 29mn
Bit rate mode : Constant
Bit rate : 640 Kbps
Channel(s) : 6 channels
Channel positions : Front: L C R, Side: L R, LFE
Sampling rate : 48.0 KHz
Bit depth : 16 bits
Compression mode : Lossy
Stream size : 410 MiB (7%)
Title : KvK
Language : Russian
Default : Yes
Forced : No

Audio #2
ID : 3
Format : AC-3
Format/Info : Audio Coding 3
Mode extension : CM (complete main)
Codec ID : A_AC3
Duration : 1h 29mn
Bit rate mode : Constant
Bit rate : 640 Kbps
Channel(s) : 6 channels
Channel positions : Front: L C R, Side: L R, LFE
Sampling rate : 48.0 KHz
2a77dd573fb3be7f25cb71b1c9d8f99559a62700Убойное Рождество Гарольда и Кумара / A Very Harold & Kumar 3D Christmas (Тодд Штраус-Шульсон, комедия, 2011) [BDRip 720p, Профессиональный (двухголосый, закадровый) (Кубик в кубе) + оригинал + субтитры)] Убойное Рождество Гарольда и Кумара / A Very Harold & Kumar 3D Christmas (Тодд Штраус-Шульсон, комедия, 2011) [BDRip 720p, Профессиональный (двухголосый, закадровый) (Кубик в кубе) + оригинал + субтитры)] " />

Аплоадер: Админ, дата: 22-03-2012, 17:49, торрент скачан: 359 раз

Понравилась раздача? Посмотрите эти:
  • Верное дельце / Une pure affaire (Александр Коффре, Боевик, Комедия, Кримин ...
  • Убойное Рождество Гарольда и Кумара / A Very Harold & Kumar Christmas (Тодд ...
  • Убойное Рождество Гарольда и Кумара / A Very Harold & Kumar 3D Christmas (Т ...
  • Убойное Рождество Гарольда и Кумара / A Very Harold & Kumar 3D Christmaspic ...
  • Убойное Рождество Гарольда и Кумара / A Very Harold & Kumar 3D Christmas (Т ...
  • Железное небо / Iron Sky (Тимо Вуоренсола, Фантастика, боевик, комедия, 201 ...
  • Убойное Рождество Гарольда и Кумара / A Very Harold & Kumar Christmas (Тодд ...
  • [3D] Убойное Рождество Гарольда и Кумара 3D / A Very Harold & Kumar 3D Chri ...
  • [3D] Убойное Рождество Гарольда и Кумара 3D/ A Very Harold & Kumar 3D Chri ...
  • Мальчишник 2: Из Вегаса в Бангкок / The Hangover Part II (Тодд Филлипс, ком ...
  • Ледниковый период: Гигантское Рождество / Ice Age: A Mammoth Christmas (Кар ...
  • Чаббчаббы спасают Рождество / The Chubbchubbs Save Xmas (Коуди Камерон, мул ...
  • Гарольд и Кумар уходят в отрыв / Harold & Kumar Go to White Castle [UNRATED ...
  • Учитель на замену / Detachment (Тони Кэй, драма, 2011) [BDRip 720р, Професс ...
  • Mylene Farmer / Du Temps [2011, Pop, HDTVRip]
  • Убойное Рождество Гарольда и Кумара / A Very Harold & Kumar 3D Christmas (Т ...
  • Убойное Рождество Гарольда и Кумара / A Very Harold & Kumar 3D Christmaspic ...
  • Убойное Рождество Гарольда и Кумара / A Very Harold & Kumar 3D Christmas (Т ...
  • Гарольд и Кумар. Трилогия / Harold & Kumar. Trilogy (Дэнни Лайнер / Danny L ...
  • Убойное Рождество Гарольда и Кумара / A Very Harold & Kumar Christmas (Тодд ...
  • Информация
    Посетители, находящиеся в группе Гости, не могут оставлять комментарии к данной публикации.