вход на сайт

Имя пользователя :
Пароль :

Восстановление пароля Регистрация
Рыжий пес / Red Dog (Крив Стендерс, драма, комедия, семейный, 2011) [BDRip 1080p, Профессиональный многоголосый + Оригинал + Субтитры]
Рейтинг:
(голосов: 1)



[img]{THEME}/images/logopost.png[/img]



Рыжий пес / Red Dog

Год выпуска: 2011
Страна: Австралия
Производство: Endymion Films Inc.
Жанр: драма, комедия, семейный

Режиссёр: Крив Стендерс
В ролях: Джош Лукас, Рэйчел Тейлор, Ноа Тейлор, Киша Касл-Хьюз, Люк Форд, Билл Хантер, Джон Батчелор, Тиффани Линдэлл-Найт, Имон Фэррен, Артур Энджел, Роэн Никол, Коста Ронин, Джон Лири, Сингу Усами, Бретт Хит

Перевод: Профессиональный многоголосый + Оригинал
Субтитры: Русские, английские (отключаемые)(UTF-8 Plain Text)

Описание: В далеком шахтерском поселке, где живут суровые и не слишком общительные люди, однажды появляется энергичный рыжий пес из породы келпи. Только ему под силу расшевелить провинциальное сонное царство. Рыжий не подчиняется никому, но его любят все. С помощью неутомимого пса многим поселенцам суждено обрести друзей, счастье, надежду и радость. А некоторым — найти любовь всей своей жизни.



Качество: BDRip 1080p
Продолжительность: 01:32:20

Формат: MKV
Видео кодек: MPEG4_AVC (H.264)
Аудио кодек: AC3, DTS
Видео: 1920 x 816 (2.35:1), 23.976 fps, 10.4 Mbps, 0.276 bpp
Аудио: 1# 48 kHz, AC3, 6 ch, 192 kbps, Профессиональный многоголосый
Аудио: 2# 48 kHz, DTS, 6 ch, 1510 kbps, Оригинал

MediaInfo ▼General
Unique ID : 235197927884906122044234608419361750407 (0xB0F17924C21F798BB2795F36D0CF7D87)
Complete name : D:фильмыRyzgij.pes.2011.BDRip.1080p.mkv
Format : Matroska
Format version : Version 2
File size : 7.77 GiB
Duration : 1h 32mn
Overall bit rate : 12.1 Mbps
Encoded date : UTC 2012-02-27 20:15:42
Writing application : mkvmerge v4.9.1 (Ich will) сборка от Aug 10 2011 09:31:20
Writing library : libebml v1.2.1 + libmatroska v1.2.0

Video
ID : 1
Format : AVC
Format/Info : Advanced Video Codec
Format profile : [email protected]
Format settings, CABAC : Yes
Format settings, ReFrames : 5 frames
Codec ID : V_MPEG4/ISO/AVC
Duration : 1h 32mn
Bit rate : 10.4 Mbps
Width : 1 920 pixels
Height : 816 pixels
Display aspect ratio : 2.35:1
Frame rate : 23.976 fps
Color space : YUV
Chroma subsampling : 4:2:0
Bit depth : 8 bits
Scan type : Progressive
Bits/(Pixel*Frame) : 0.276
Stream size : 6.52 GiB (84%)
Title : Red Dog
Writing library : x264 core 119 r2106 07efeb4
Encoding settings : cabac=1 / ref=5 / deblock=1:0:0 / analyse=0x3:0x133 / me=umh / subme=8 / psy=1 / psy_rd=1.00:0.00 / mixed_ref=1 / me_range=16 / chroma_me=1 / trellis=1 / 8x8dct=1 / cqm=0 / deadzone=21,11 / fast_pskip=0 / chroma_qp_offset=-2 / threads=12 / sliced_threads=0 / nr=0 / decimate=1 / interlaced=0 / bluray_compat=0 / constrained_intra=0 / bframes=3 / b_pyramid=2 / b_adapt=1 / b_bias=0 / direct=1 / weightb=1 / open_gop=0 / weightp=2 / keyint=250 / keyint_min=25 / scenecut=40 / intra_refresh=0 / rc_lookahead=40 / rc=2pass / mbtree=1 / bitrate=10351 / ratetol=1.0 / qcomp=0.60 / qpmin=0 / qpmax=69 / qpstep=4 / cplxblur=20.0 / qblur=0.5 / ip_ratio=1.40 / aq=1:1.00
Language : English
Default : Yes
Forced : No

Audio #1
ID : 2
Format : AC-3
Format/Info : Audio Coding 3
Mode extension : CM (complete main)
Codec ID : A_AC3
Duration : 1h 32mn
Bit rate mode : Constant
Bit rate : 192 Kbps
Channel(s) : 6 channels
Channel positions : Front: L C R, Side: L R, LFE
Sampling rate : 48.0 KHz
Bit depth : 16 bits
Compression mode : Lossy
Delay relative to video : 3s 200ms
Stream size : 127 MiB (2%)
Title : MVO
Language : Russian
Default : Yes
Forced : Yes

Audio #2
ID : 3
Format : DTS
Format/Info : Digital Theater Systems
Codec ID : A_DTS
Duration : 1h 32mn
Bit rate mode : Constant
Bit rate : 1 510 Kbps
Channel(s) : 6 channels
Channel positions : Front: L C R, Side: L R, LFE
Sampling rate : 48.0 KHz
Bit depth : 16 bits
Compression mode : Lossy
Stream size : 997 MiB (13%)
Language : English
Default : No
Forced : No

Text #1
ID : 4
Format : UTF-8
Codec ID : S_TEXT/UTF8
Codec ID/Info : UTF-8 Plain Text
Language : Russian
Default : No
Forced : No

Text #2
ID : 5
Fo
92f2ab346e99815173530d9c08a095c5dcb0c4f9Рыжий пес / Red Dog (Крив Стендерс, драма, комедия, семейный, 2011) [BDRip 1080p, Профессиональный многоголосый + Оригинал + Субтитры] Рыжий пес / Red Dog (Крив Стендерс, драма, комедия, семейный, 2011) [BDRip 1080p, Профессиональный многоголосый + Оригинал + Субтитры] " />

Аплоадер: Админ, дата: 18-03-2012, 15:39, торрент скачан: 359 раз

Понравилась раздача? Посмотрите эти:
  • Запретная любовь / The Edge of Love (Джон Мэйбери, Драма, мелодрама, военны ...
  • Жизнь Пи / Life Of Pi (Энг Ли, Драма, приключения, 2012) [BDRip 1080p, Проф ...
  • Суррогат / The Sessions (Бен Луин, драма, 2012) [BDRip 720p, Профессиональн ...
  • Зубная фея 2 / Tooth Fairy 2 (Алекс Замм, комедия, семейный, 2012) [BDRip 7 ...
  • Шелуха / Husk (Бретт Симмонс, ужасы, триллер, 2011) [BDRip 720p, Профессион ...
  • Хранитель времени / Hugo (Мартин Скорсезе, Драма, 2011) [BDRip-AVC, Професс ...
  • Персонаж / Stranger Than Fiction (Марк Форстер, Комедия, драма, фантастика, ...
  • Бедная богатая девочка / Young Adult (Джейсон Райтман, драма, комедия, 2011 ...
  • Рыжий пес / Red Dog (Крив Стендерс / Kriv Stenders, Драма, комедия, семейны ...
  • Рыжий пес / Red Dog (Крив Стендерс, Драма, комедия, семейный, 2011) [BDRip- ...
  • Рыжий пес / Red Dog (Крив Стендерс, Драма, комедия, семейный, 2011) [BDRip- ...
  • Гриффины: Это ловушка! / Family Guy Presents: Its a Trap! (Питер Шин / муль ...
  • Бобер / The Beaver (Джоди Фостер, драма, 2011) [BDRip 720p, Дубляж + Оригин ...
  • Восстание планеты обезьян / Rise of the Planet of the Apes (Руперт Уайатт, ...
  • Погоня / Abduction (Джон Синглтон, боевик, триллер, драма, детектив,2011) [ ...
  • Профессионал / Killer Elite (Гэри МакКендри, Боевик, Триллер, Криминал, 201 ...
  • Чужие на районе / Attack the Block (Джо Корниш, фантастика, боевик, комедия ...
  • Рыжий пес / Red Dog (Крив Стендерс, драма, комедия, семейный, 2011) [BDRip ...
  • Супер Майк / Magic Mike (Стивен Содерберг, Драма, комедия, 2012) [BDRip 108 ...
  • Рыжий пес / Red Dog (Крив Стендерс / Kriv Stenders, Драма, комедия, семейн ...
  • Люди как мы / People Like Us (Алекс Куртцман, Драма, 2012) [BDRip 1080p, Пр ...
  • Mylene Farmer / Du Temps [2011, Pop, HDTVRip]
  • Рыжий пёс / Red Dog (Крив Стендерс, драма, комедия, семейный, 2011) [HDRip, ...
  • Рыжий пёс / Red Dog (Крив Стендерс, драма, комедия, семейный, 2011) [HDRip, ...
  • Рыжий пес / Red Dog (Крив Стендерс, Драма, комедия, семейный, 2011) [HDRip, ...
  • Информация
    Посетители, находящиеся в группе Гости, не могут оставлять комментарии к данной публикации.