вход на сайт

Имя пользователя :
Пароль :

Восстановление пароля Регистрация
Полуночный экспресс / The Midnight Meat Train (Рюхэй Китамура, ужасы, триллер, детектив, 2008) [BDRip 1080p, Профессиональный (полное дублирование) + Оригинал + Субтитры]
Рейтинг:
(голосов: 1)



[img]{THEME}/images/logopost.png[/img]



Полуночный экспресс / The Midnight Meat Train
Directors cut / Режиссерская версия
«Осторожно! Двери закрываются. Следующая остановка - АД!»

Год выпуска: 2008 г.
Страна: США
Производство: Lions Gate Films Inc., Lakeshore Entertainment
Жанр: Ужасы, триллер, детектив

Режиссёр: Рюхэй Китамура / Ryuhei Kitamura
В ролях: Брэдли Купер, Лесли Бибб, Брук Шилдс, Винни Джонс, Роджер Барт, Тони Каррен, Барбара Ив Харрис, Питер Джекобсон, Стефани Мейс, Тед эйми

Перевод: Профессиональный (полное дублирование) + Оригинал
Субтитры: Русские (Forced, Full), английские

Описание:
Молодой фотограф криминальной хроники Леон Кауфман получает выгодное предложение показать публике свои работы от одной Нью-Йоркской галереи. В своих фотографиях он должен отразить «все экстремальное и темное», что есть в городе. В поисках сюжета поздно ночью он случайно становится свидетелем ужасного убийства молодой девушки в подземке. Понимая, что его фотографии могут помочь полиции в поимке убийцы, Леон все больше вовлекается в это дело и в скором времени узнает, что его собственная девушка Мая тоже похищена. Теперь он должен в кратчайшие сроки разгадать тайну жестоких убийств в подземке и успеть спасти свою девушку, пока не поздно…





Качество: BDRip 1080p
Продолжительность: 01:42:57 час.

Формат: MKV
Видео кодек: H.264
Аудио кодек: AC3, DTS
Видео: 1920x816 (2.35:1), 23.976 fps, Advanced Video Codec ([email protected]) ~16 000 kbps avg, 0.426 bit/pixel
Аудио #1: 48 kHz, AC3, 3/2 (L,C,R,l,r) + LFE ch, ~448.00 kbps avg | DUB
Аудио #2: 48 kHz, DTS, 3/2 (L,C,R,l,r) + LFE ch, ~1 510 kbps avg | ENG
Аудио #3: 48 kHz, OGG, 2 (L,R) ch, ~80.0 kbps avg | ENG (Comentary)
Media Info ▼TextFormat: Matroska
Format version: Version 1
File size: 13.0 GiB
Duration: 1h 42mn
Overall bit rate: 18.0 Mbps
Encoded date: UTC 2009-03-09 14:15:30
Writing application: mkvmerge v2.5.3 (Boogie-) built on Mar7 2009 15:00:41
Writing library: libebml v0.7.7 + libmatroska v0.8.1

Video
ID: 1
Format: AVC
Format/Info: Advanced Video Codec
Format profile: [email protected]
Format settings, CABAC: Yes
Format settings, ReFrames: 5 frames
Codec ID: V_MPEG4/ISO/AVC
Duration: 1h 42mn
Bit rate: 16.0 Mbps
Width: 1 920 pixels
Height: 816 pixels
Display aspect ratio: 2.35:1
Frame rate: 23.976 fps
Color space: YUV
Chroma subsampling: 4:2:0
Bit depth: 8 bits
Scan type: Progressive
Bits/(Pixel*Frame): 0.426
Stream size: 11.2 GiB (87%)
Title: Video @ 16000 kbps
Writing library: x264 core 66 r1115M 11863ac
Encoding settings: cabac=1 / ref=5 / deblock=1:-3:-3 / analyse=0x3:0x133 / me=umh / subme=9 / psy_rd=1.2:0.0 / mixed_ref=1 / me_range=32 / chroma_me=1 / trellis=2 / 8x8dct=1 / cqm=0 / deadzone=21,11 / chroma_qp_offset=-2 / threads=6 / nr=0 / decimate=1 / mbaff=0 / bframes=10 / b_pyramid=1 / b_adapt=2 / b_bias=0 / direct=3 / wpredb=1 / keyint=250 / keyint_min=25 / scenecut=40(pre) / rc=2pass / bitrate=16000 / ratetol=1.0 / qcomp=0.60 / qpmin=10 / qpmax=51 / qpstep=4 / cplxblur=20.0 / qblur=0.5 / ip_ratio=1.40 / pb_ratio=1.30 / aq=1:0.80
Language: English

Audio #1
ID: 2
Format: AC-3
Format/Info: Audio Coding 3
Mode extension: CM (complete main)
Codec ID: A_AC3
Duration: 1h 42mn
Bit rate mode: Constant
Bit rate: 448 Kbps
Channel(s): 6 channels
Channel positions: Front: L C R, Side: L R, LFE
Sampling rate: 48.0 KHz
Bit depth: 16 bits
Compression mode: Lossy
Stream size: 330 MiB (2%)
Title: Дубляж AC3 6ch 448kbps
Language: Russian

Audio #2
ID: 3
Format: DTS
Format/Info: Digital Theater Systems
Codec ID: A_DTS
Duration: 1h 42mn
Bit rate mode: Constant
Bit rate: 1 510 Kbps
Channel(s): 6 channels
Channel positions: Front: L C R, Side: L R, LFE
Sampling rate: 48.0 KHz
Bit depth: 24 bits
Compression mode: Lossy
Stream size: 1.09 GiB (8%)
Title: DTS 5.1 @ 1536 kbps
Language: English

Audio #3
ID: 4
Format: Vorbis
Format settings, Floor: 1
Codec ID: A_VORBIS
Duration: 1h 42mn
Bit rate mode: Variable
Bit rate: 80.0 Kbps
Channel(s): 2 channels
Sampling rate: 48.0 KHz
Compression mode: Lossy
Stream size:
62b8d4b25daab9ae319e1e9fe0b32c4b8207a63eПолуночный экспресс / The Midnight Meat Train (Рюхэй Китамура, ужасы, триллер, детектив, 2008) [BDRip 1080p, Профессиональный (полное дублирование) + Оригинал + Субтитры] Полуночный экспресс / The Midnight Meat Train (Рюхэй Китамура, ужасы, триллер, детектив, 2008) [BDRip 1080p, Профессиональный (полное дублирование) + Оригинал + Субтитры] " />

Аплоадер: Админ, дата: 18-03-2012, 10:59, торрент скачан: 359 раз

Понравилась раздача? Посмотрите эти:
  • Ананасовый экспресс. Сижу, курю / Pineapple Express [Theatrical Cut] (Дэвид ...
  • Пастырь / Priest (Скотт Чарльз Стюарт, ужасы, фантастика, боевик, триллер, ...
  • Иллюзия обмана / Now You See Me [Theatrical Cut] (Луи Летерье / Louis Leter ...
  • Четвертый вид / The Fourth Kind (Олатунде Осунсанми, ужасы, фантастика, 200 ...
  • Никто не выжил / No One Lives (Рюхэй Китамура, Триллер, ужасы, 2012) [BDRip ...
  • Полуночный экспресс [Режиссерская версия] / The Midnight Meat Train [Unrate ...
  • Бессмертные души / Soul Survivors (Стивен Карпентер, ужасы, триллер, драма, ...
  • Жизнь Пи / Life Of Pi (Энг Ли, Драма, приключения, 2012) [BDRip 1080p, Проф ...
  • Сайлент Хилл 2 / Silent Hill: Revelation 3D (Майкл Дж. Бассетт, ужасы, трил ...
  • Голодный кролик атакует / Seeking Justice (Роджер Дональдсон / Roger Donald ...
  • Фантомы / Shutter (Масаюки Очиай, ужасы, триллер, детектив, 2008) [BDRip-AV ...
  • Поворот не туда 4 / Wrong Turn 4 (Деклан О’Брайэн, ужасы, боевик, детектив, ...
  • Коллекционер 2 / The Collection (Маркус Данстэн, ужасы, боевик, триллер , 2 ...
  • Погоня / Abduction (Джон Синглтон, боевик, триллер, драма, детектив,2011) [ ...
  • Другой мир: Пробуждение / Underworld: Awakening (Монс Морлинд, Бьёрн Стейн, ...
  • Ворон / The Raven (Джеймс МакТиг, Триллер, детектив, 2012) [BDRip 720p, Дуб ...
  • Хижина в лесу / The Cabin in the Woods (Дрю Годдард, Ужасы, фантастика, три ...
  • Красные огни / Red Lights (Родриго Кортес, Ужасы, триллер, драма, 2012) [BD ...
  • Полуночный экспресс / The Midnight Meat Train (Рюхэй Китамура, Ужасы, трилл ...
  • Полуночный экспресс / The Midnight Meat Train [Режиссерская версия / Unrate ...
  • Информация
    Посетители, находящиеся в группе Гости, не могут оставлять комментарии к данной публикации.