вход на сайт

Имя пользователя :
Пароль :

Восстановление пароля Регистрация
Расплата [Режиссёрская версия] / Payback: Straight Up [Directors Cut] (Брайан Хелгеленд, боевик, триллер, драма, криминал, 2006) [BDRip 720p, Профессиональный (Многоголосый закадровый) + Оригинал]
Рейтинг:
(голосов: 1)



[img]{THEME}/images/logopost.png[/img]



Расплата [Режиссёрская версия] / Payback: Straight Up [Directors Cut]

Cлоган: «Hes back with a vengeance.»


Год выпуска: 2006
Страна:США
Выпущено: Icon Entertainmnet International
Жанр: боевик, триллер, драма, криминал

Режиссёр: Брайан Хелгеленд
В главных ролях: Мэл Гибсон, Грегг Генри, Мария Белло, Дэвид Пэймер, Билл Дьюк, Дебора Кара Ангер, Джон Гловер, Уильям Дивэйн, Люси Лью, Джек Конли

Перевод: Профессиональный (Многоголосый закадровый)оригинал
Субтитры:Отсутствуют

О фильме: Парень с пулей в спине лежит на грязной кушетке. Его будет оперировать подпольный хирург — потому что в больницу нельзя, там найдут. Если он выживет, то ему останется решить всего одну задачу — вернуть деньги, из-за которых его однажды уже чуть не убили. Только вернуть деньги, больше ничего… Голливуд в этом фильме вернулся к теме гангстерского кино 30-х, но с современным размахом.



IMDB: рейтинг7.8/10 (2 456 votes)
КиноПоиск: рейтинг 8.0/10 (3 103 голосов)

MediaInfo ▼Text
General
Unique ID : 224350430655436995800952006286395247343 (0xA8C8523D0463EEAD8FE9F3D718E70AEF)
Complete name : /Torrents/home/alekseim/data/Payback.Straight.Up.2006.BDRip.720p.Rus.Eng/Payback.Straight.Up.2006.BDRip.720p.Rus.mkv
Format : Matroska
Format version : Version 2
File size : 4.25 GiB
Duration : 1h 30mn
Overall bit rate : 6 746 Kbps
Encoded date : UTC 2007-07-05 06:43:42
Writing application : mkvmerge v2.0.2 (Youre My Flame) built on Feb 21 2007 23:40:55
Writing library : libebml v0.7.7 + libmatroska v0.8.1

Video
ID : 1
Format : AVC
Format/Info : Advanced Video Codec
Format profile : [email protected]
Format settings, CABAC : Yes
Format settings, ReFrames : 9 frames
Format settings, GOP : N=1
Codec ID : V_MPEG4/ISO/AVC
Duration : 1h 30mn
Bit rate : 6 297 Kbps
Width : 1 280 pixels
Height : 528 pixels
Display aspect ratio : 2.40:1
Frame rate : 23.976 fps
Color space : YUV
Chroma subsampling : 4:2:0
Bit depth : 8 bits
Scan type : Progressive
Bits/(Pixel*Frame) : 0.389
Stream size : 3.88 GiB (91%)
Writing library : x264 core 54 svn-648
Encoding settings : cabac=1 / ref=6 / deblock=1:-3:-3 / analyse=0x3:0x133 / me=umh / subme=7 / brdo=0 / mixed_ref=1 / me_range=16 / chroma_me=1 / trellis=1 / 8x8dct=1 / cqm=2 / deadzone=21,11 / chroma_qp_offset=0 / threads=3 / nr=0 / decimate=1 / mbaff=0 / bframes=3 / b_pyramid=1 / b_adapt=1 / b_bias=0 / direct=1 / wpredb=1 / bime=1 / keyint=240 / keyint_min=24 / scenecut=40(pre) / rc=2pass / bitrate=6297 / ratetol=1.0 / rceq=blurCplx^(1-qComp) / qcomp=0.60 / qpmin=10 / qpmax=51 / qpstep=4 / cplxblur=20.0 / qblur=0.5 / ip_ratio=1.40 / pb_ratio=1.30
Language : English
Default : Yes
Forced : No

Audio
ID : 2
Format : AC-3
Format/Info : Audio Coding 3
Mode extension : CM (complete main)
Codec ID : A_AC3
Duration : 1h 30mn
Bit rate mode : Constant
Bit rate : 448 Kbps
Channel(s) : 6 channels
Channel positions : Front: L C R, Side: L R, LFE
Sampling rate : 48.0 KHz
Bit depth : 16 bits
Compression mode : Lossy
Stream size : 289 MiB (7%)
Title : AC3 5.1 at 448 kbps
Language : Russian
Default : Yes
Forced : No



Релиз от:


Качество: BDRip 720p
Продолжительность:01:30:11

Формат: MKV
Видео кодек: AVC
Аудио кодек: AC3
Видео: 1280x528 (2.40:1), AVC, 23,976 fps, 6 297 kbps, 0.38 bit/pixel
Аудио #1: Russian: 48.0 KHz, Audio Coding 3, 6 channels (Front: L C R, Side: L R, LFE), 448 Kbps|Многоголосый закадровый|
Аудио #2: English: 48.0 KHz, Audio Coding 3, 6 channels (Front: L C R, Side: L R, LFE), 640 Kbps |Отдельным файлом|



Наши рипы / Набор в РГ / Стол заказов РГ / Стол заказов по РИПам




110ce4a585b2e05715860ae704a7073fa3d967f9Расплата [Режиссёрская версия] / Payback: Straight Up [Directors Cut] (Брайан Хелгеленд, боевик, триллер, драма, криминал, 2006) [BDRip 720p, Профессиональный (Многоголосый закадровый) + Оригинал] Расплата [Режиссёрская версия] / Payback: Straight Up [Directors Cut] (Брайан Хелгеленд, боевик, триллер, драма, криминал, 2006) [BDRip 720p, Профессиональный (Многоголосый закадровый) + Оригинал] " />

Аплоадер: Админ, дата: 18-03-2012, 10:11, торрент скачан: 359 раз

Понравилась раздача? Посмотрите эти:
  • Погнали! / Getaway (Кортни Соломон, боевик, криминал, 2013) [BDRip 720p, Пр ...
  • 42 / 42 (Брайан Хелгеленд, Драма, биография, спорт, 2013) [BDRip 720p, Проф ...
  • Смерть на похоронах / Death at a Funeral (Нил ЛаБут, комедия, 2010) [BDRip ...
  • Водитель / The Driver (Уолтер Хилл, Боевик, триллер, драма, криминал, 1978) ...
  • Расплата [Режиссёрская версия] / Payback: Straight Up [Directors Cut] (Брай ...
  • Расплата [Режиссёрская версия] / Payback [Directors Cut] (Брайан Хелгеленд, ...
  • Убить по расписанию / Ticking Clock (Эрни Барбараш, фантастика, боевик, три ...
  • Расплата: Режиссерская версия / Payback: Straight Up - The Directors Cut (Б ...
  • Расплата / Payback: Straight Up (Брайан Хелгеленд, боевик, триллер, кримина ...
  • Расплата / Payback (Брайан Хелгеленд, Джон Мир, Боевик, 1999) [BDRip - AVC, ...
  • Донни Дарко (Режиссерская версия) / Donnie Darko (Directors Cut) (Ричард Ке ...
  • Робин Гуд [Режиссёрская версия] / Robin Hood [Directors Cut] (Ридли Скотт / ...
  • Леон: Профессионал (Режиссерская Версия) / Leon, The Professional (Director ...
  • Леон: Профессионал (Режиссерская версия) / Leon (Люк Бессон, боевик, 1994) ...
  • Красавчик Джонни / Johnny Handsome (Уолтер Хилл, Триллер, драма, криминал, ...
  • Вся королевская рать / All the Kings Men (Стивен Зеллиан, триллер, драма, 2 ...
  • Скуби-Ду 3: Тайна начинается / Scooby-Doo! The Mystery Begins (Брайан Леван ...
  • Похищенная / A Lonely Place to Die (Джулиан Джилби, триллер, криминал, прик ...
  • Ронин / Ronin (Джон Франкенхаймер, боевик, триллер, драма, криминал, 1998) ...
  • Расплата / Payback [Theatrical Cut] (Брайан Хелгеленд, боевик, триллер, кри ...
  • Информация
    Посетители, находящиеся в группе Гости, не могут оставлять комментарии к данной публикации.