вход на сайт

Имя пользователя :
Пароль :

Восстановление пароля Регистрация
Рыжий пес / Red Dog (Крив Стендерс, драма, комедия, семейный, 2011) [BDRip 720p, Профессиональный (многоголосый закадровый) + Оригинал + субтитры]
Рейтинг:
(голосов: 1)



[img]{THEME}/images/logopost.png[/img]



Рыжий пес / Red Dog

Год выпуска: 2011 г.
Страна: Австралия
Производство: Endymion Films Inc., ScreenWest
Жанр: Драма, комедия, семейныйв

Режиссёр: Крив Стендерс / Kriv Stenders
В ролях: Джош Лукас, Рэйчел Тейлор, Ноа Тейлор, Киша Касл-Хьюз, Люк Форд, Билл Хантер, Джон Батчелор, Тиффани Линдэлл-Найт, Имон Фэррен, Артур Энджел

Перевод: Профессиональный (многоголосый закадровый) [НТВ+] + Оригинал
Субтитры: Русские, английские

Описание:
В далеком шахтерском поселке, где живут суровые и не слишком общительные люди, однажды появляется энергичный рыжий пес из породы келпи. Только ему под силу расшевелить провинциальное сонное царство. Рыжий не подчиняется никому, но его любят все. С помощью неутомимого пса многим поселенцам суждено обрести друзей, счастье, надежду и радость. А некоторым — найти любовь всей своей жизни.





Качество: BDRip 720p
Продолжительность: 01:32:19 час.

Формат: MKV
Видео кодек: H264
Аудио кодек: AC3, DTS
Видео: 1280x544 (2.35:1), 23.976 fps, Advanced Video Codec ([email protected]) ~5 271 kbps avg, 0.316 bit/pixel
Аудио#1: 48 kHz, AC3 Dolby Digital, 3/2 (L,C,R,l,r) + LFE ch ~192.00 kbps avg
Аудио#2: 48 kHz, Digital Theater Systems, 3/2 (L,C,R,l,r) + LFE ch ~1510 kbps avg

Дата премьеры (мир): 4 августа 2011

Media Info ▼
TextFormat : Matroska
Format version : Version 2
File size : 4.50 GiB
Duration : 1h 32mn
Overall bit rate : 6 973 Kbps
Encoded date : UTC 2012-02-27 14:51:37
Writing application : mkvmerge v5.2.0 (I cant explain) built on Dec 18 2011 18:12:03
Writing library : libebml v1.2.3 + libmatroska v1.3.0

Video
ID : 1
Format : AVC
Format/Info : Advanced Video Codec
Format profile : [email protected]
Format settings, CABAC : Yes
Format settings, ReFrames : 5 frames
Codec ID : V_MPEG4/ISO/AVC
Duration : 1h 32mn
Bit rate : 5 271 Kbps
Width : 1 280 pixels
Height : 544 pixels
Display aspect ratio : 2.35:1
Frame rate : 23.976 fps
Color space : YUV
Chroma subsampling : 4:2:0
Bit depth : 8 bits
Scan type : Progressive
Bits/(Pixel*Frame) : 0.316
Stream size : 3.31 GiB (74%)
Title : aAF
Writing library : x264 core 119 r2106 07efeb4
Encoding settings : cabac=1 / ref=5 / deblock=1:0:0 / analyse=0x3:0x133 / me=umh / subme=8 / psy=1 / psy_rd=1.00:0.00 / mixed_ref=1 / me_range=16 / chroma_me=1 / trellis=1 / 8x8dct=1 / cqm=0 / deadzone=21,11 / fast_pskip=0 / chroma_qp_offset=-2 / threads=12 / sliced_threads=0 / nr=0 / decimate=1 / interlaced=0 / bluray_compat=0 / constrained_intra=0 / bframes=3 / b_pyramid=2 / b_adapt=1 / b_bias=0 / direct=1 / weightb=1 / open_gop=0 / weightp=2 / keyint=250 / keyint_min=25 / scenecut=40 / intra_refresh=0 / rc_lookahead=40 / rc=2pass / mbtree=1 / bitrate=5271 / ratetol=1.0 / qcomp=0.60 / qpmin=0 / qpmax=69 / qpstep=4 / cplxblur=20.0 / qblur=0.5 / ip_ratio=1.40 / aq=1:1.00
Language : English

Audio #1
ID : 2
Format : AC-3
Format/Info : Audio Coding 3
Mode extension : CM (complete main)
Codec ID : A_AC3
Duration : 1h 32mn
Bit rate mode : Constant
Bit rate : 192 Kbps
Channel(s) : 6 channels
Channel positions : Front: L C R, Side: L R, LFE
Sampling rate : 48.0 KHz
Bit depth : 16 bits
Compression mode : Lossy
Stream size : 127 MiB (3%)
Title : MVO
Language : Russian

Audio #2
ID : 3
Format : DTS
Format/Info : Digital Theater Systems
Codec ID : A_DTS
Duration : 1h 32mn
Bit rate mode : Constant
Bit rate : 1 510 Kbps
Channel(s) : 6 channels
Channel positions : Front: L C R, Side: L R, LFE
Sampling rate : 48.0 KHz
Bit depth : 16 bits
Compression mode : Lossy
Stream size : 997 MiB (22%)
Language : English

Text #1
ID : 4
Format : UTF-8
Codec ID : S_TEXT/UTF8
Codec ID/Info : UTF-8 Plain Text
Language : Russian

Text #2
ID : 5
Format : UTF-8
Codec ID : S_TEXT/UTF8
Codec ID/Info : UTF-8 Plain Text
Language : English





def759c9fa8ad3c2b1157cd40e99fe49387c1117Рыжий пес / Red Dog (Крив Стендерс, драма, комедия, семейный, 2011) [BDRip 720p, Профессиональный (многоголосый закадровый) + Оригинал + субтитры] Рыжий пес / Red Dog (Крив Стендерс, драма, комедия, семейный, 2011) [BDRip 720p, Профессиональный (многоголосый закадровый) + Оригинал + субтитры] " />

Аплоадер: Админ, дата: 14-03-2012, 06:56, торрент скачан: 359 раз

Понравилась раздача? Посмотрите эти:
  • Погнали! / Getaway (Кортни Соломон, боевик, криминал, 2013) [BDRip 720p, Пр ...
  • 42 / 42 (Брайан Хелгеленд, Драма, биография, спорт, 2013) [BDRip 720p, Проф ...
  • Гость / The Caller (Мэттью Паркхилл, триллер, детектив, 2011) [BDRip 720p, ...
  • Суррогат / The Sessions (Бен Луин, драма, 2012) [BDRip 720p, Профессиональн ...
  • Зубная фея 2 / Tooth Fairy 2 (Алекс Замм, комедия, семейный, 2012) [BDRip 7 ...
  • Убить по расписанию / Ticking Clock (Эрни Барбараш, фантастика, боевик, три ...
  • Хранитель времени / Hugo (Мартин Скорсезе, Драма, 2011) [BDRip-AVC, Професс ...
  • Мартовские иды / The Ides of March (Джордж Клуни / George Clooney, драма, 2 ...
  • Персонаж / Stranger Than Fiction (Марк Форстер, Комедия, драма, фантастика, ...
  • Рыжий пес / Red Dog (Крив Стендерс / Kriv Stenders, Драма, комедия, семейны ...
  • Рыжий пес / Red Dog (Крив Стендерс, Драма, комедия, семейный, 2011) [BDRip- ...
  • Рыжий пес / Red Dog (Крив Стендерс, Драма, комедия, семейный, 2011) [BDRip- ...
  • Бобер / The Beaver (Джоди Фостер, драма, 2011) [BDRip 720p, Дубляж + Оригин ...
  • Дети шпионов 4D / Spy Kids: All the Time in the World in 4D (Роберт Родриге ...
  • Человек, который изменил всё / Moneyball (Беннетт Миллер, драма, биография, ...
  • Дом грёз / Dream House (Джим Шеридан, триллер, драма, детектив, 2011) [BDRi ...
  • Рыжий пес / Red Dog (Крив Стендерс, драма, комедия, семейный, 2011) [BDRip ...
  • Домашняя работа / The Art of Getting By (Гэвин Вьесен, драма, мелодрама, 20 ...
  • Похищенная / A Lonely Place to Die (Джулиан Джилби, триллер, криминал, прик ...
  • Приемыш / Foster (Джонатан Ньюман, Драма, Комедия, Семейный, 2011) [BDRip 7 ...
  • Рыжий пес / Red Dog (Крив Стендерс / Kriv Stenders, Драма, комедия, семейн ...
  • Дневник слабака 3 / Diary of a Wimpy Kid: Dog Days (Дэвид Бауэрс, комедия, ...
  • Рыжий пёс / Red Dog (Крив Стендерс, драма, комедия, семейный, 2011) [HDRip, ...
  • Рыжий пёс / Red Dog (Крив Стендерс, драма, комедия, семейный, 2011) [HDRip, ...
  • Рыжий пес / Red Dog (Крив Стендерс, Драма, комедия, семейный, 2011) [HDRip, ...
  • Информация
    Посетители, находящиеся в группе Гости, не могут оставлять комментарии к данной публикации.