вход на сайт

Имя пользователя :
Пароль :

Восстановление пароля Регистрация
Большой каньон / Grand Canyon (Лоуренс Кэздан, драма, криминал, 1991) [BDRip 720p, Многоголосый закадровый, Любительский (Двухголосый закадровый) + Авторский (Одноголосый, закадровый) + Украинский + Оригинал + субтитры ( Rus, Eng, Ukr)]
Рейтинг:
(голосов: 1)



[img]{THEME}/images/logopost.png[/img]



Большой каньон / Grand Canyon

Cлоган: «From the director of "The Big Chill." A story of friendship and other natural wonders.»


Год выпуска: 1991
Страна:США
Выпущено: Twentieth Century Fox Film Corporation
Жанр: драма, криминал

Режиссёр: Лоуренс Кэздан
В главных ролях: Дэнни Гловер, Кевин Клайн, Стив Мартин, Мэри МакДоннелл, Мэри-Луиз Паркер, Элфри Вудард, Джереми Систо, Тина Лиффорд, Патрик Мэлоун, Рэндл Мелл

Перевод: Профессиональный (многоголосый, закадровый)(Видеосервис) + Любительский (двухголосый, закадровый) + Авторский (одноголосый, закадровый)(Андрей Гаврилов) + Украинский + Оригинал
Субтитры:Russian, English, Ukrainian

О фильме:У любого человека есть свой ангел-хранитель. И совсем необязательно, что в нужный момент он явится в образе сверхъестественного крылатого существа. Им вполне может оказаться обыкновенная женщина в бейсболке, в последнюю секунду оттащившая тебя от проносящегося перед твоим носом автобуса.

Или чернокожий автомеханик, рискнувший своей жизнью и закрывший тебя своей грудью от жаждущей крови вооруженной шпаны. Или близкий друг, который не даст сойти с ума после того, как омерзительный грабитель-наркоман подстрелил тебя и практически сделал инвалидом.

Люди и их спасители мистическим образом связаны между собой. И, возможно, ты сам уже избран хранителем человека, которого еще не знаешь…



IMDB: рейтинг6.8/10 (9 269 votes)
КиноПоиск: рейтинг 7.0/10 (149 голосов)

MediaInfo ▼Text
General
Unique ID : 232611885592504964447740692065614589862 (0xAEFF6B6A23830CA1A6A3C328B5046FA6)
Complete name : /Grand.Canyon.1991.720p.BDRip.3xRus.Ukr.Eng.AC3.mkv
Format : Matroska
Format version : Version 2
File size : 9.83 GiB
Duration : 2h 14mn
Overall bit rate : 10.5 Mbps
Movie name : Grand Canyon (1991) - Release for HDCLUB by nmd
Encoded date : UTC 2012-03-10 15:24:41
Writing application : mkvmerge v5.3.0 (I could have danced) built on Feb 9 2012 10:38:07
Writing library : libebml v1.2.3 + libmatroska v1.3.0

Video
ID : 1
Format : AVC
Format/Info : Advanced Video Codec
Format profile : [email protected]
Format settings, CABAC : Yes
Format settings, ReFrames : 11 frames
Codec ID : V_MPEG4/ISO/AVC
Duration : 2h 14mn
Bit rate : 8 278 Kbps
Width : 1 280 pixels
Height : 544 pixels
Display aspect ratio : 2.35:1
Frame rate : 23.976 fps
Color space : YUV
Chroma subsampling : 4:2:0
Bit depth : 8 bits
Scan type : Progressive
Bits/(Pixel*Frame) : 0.496
Stream size : 7.77 GiB (79%)
Title : Grand Canyon (1991) - Release for HDCLUB
Writing library : x264 core 120 r2164 da19765
Encoding settings : cabac=1 / ref=11 / deblock=1:-3:-3 / analyse=0x3:0x113 / me=umh / subme=11 / psy=1 / psy_rd=1.00:0.00 / mixed_ref=1 / me_range=32 / chroma_me=1 / trellis=2 / 8x8dct=1 / cqm=0 / deadzone=21,11 / fast_pskip=1 / chroma_qp_offset=-2 / threads=9 / sliced_threads=0 / nr=0 / decimate=1 / interlaced=0 / bluray_compat=0 / constrained_intra=0 / bframes=8 / b_pyramid=2 / b_adapt=2 / b_bias=0 / direct=1 / weightb=1 / open_gop=0 / weightp=2 / keyint=230 / keyint_min=23 / scenecut=40 / intra_refresh=0 / rc=crf / mbtree=0 / crf=17.5 / qcomp=0.60 / qpmin=0 / qpmax=69 / qpstep=4 / ip_ratio=1.40 / pb_ratio=1.30 / aq=1:1.00
Language : English
Default : Yes
Forced : No
Color primaries : BT.709-5, BT.1361, IEC 61966-2-4, SMPTE RP177
Transfer characteristics : BT.709-5, BT.1361
Matrix coefficients : BT.709-5, BT.1361, IEC 61966-2-4 709, SMPTE RP177

Audio #1
ID : 2
Format : AC-3
Format/Info : Audio Coding 3
Mode extension : CM (complete main)
Codec ID : A_AC3
Duration : 2h 14mn
Bit rate mode : Constant
Bit rate : 640 Kbps
Channel(s) : 6 channels
Channel positions : Front: L C R, Side: L R, LFE
Sampling rate : 48.0 KHz
Bit depth : 16 bits
Compression mode : Lossy
Stream size : 615 MiB (6%)
Title : AC3 5.1 @ 640 kbps |Многоголосый закадровый - Видеосервис|
Language : Russian
Default : Yes
Forced : No
&nbs
b6116f43ce6136c0a81f364211b151faef19696fБольшой каньон / Grand Canyon (Лоуренс Кэздан, драма, криминал, 1991) [BDRip 720p, Многоголосый закадровый, Любительский (Двухголосый закадровый) + Авторский (Одноголосый, закадровый) + Украинский + Оригинал + субтитры ( Rus, Eng, Ukr)] Большой каньон / Grand Canyon (Лоуренс Кэздан, драма, криминал, 1991) [BDRip 720p, Многоголосый закадровый, Любительский (Двухголосый закадровый) + Авторский (Одноголосый, закадровый) + Украинский + Оригинал + субтитры ( Rus, Eng, Ukr)] " />

Аплоадер: Админ, дата: 13-03-2012, 05:57, торрент скачан: 359 раз

Понравилась раздача? Посмотрите эти:
  • Погнали! / Getaway (Кортни Соломон, боевик, криминал, 2013) [BDRip 720p, Пр ...
  • Ледяной / The Iceman (Ариэль Вромен, драма, криминал, биография, 2013) [BDR ...
  • Смерть на похоронах / Death at a Funeral (Нил ЛаБут, комедия, 2010) [BDRip ...
  • Ордер на смерть / Death warrant (Деран Сарафян, Боевик, драма, криминал, де ...
  • Экипаж / Flight (Роберт Земекис, драма, 2012) [BDRip 1080p, Профессиональны ...
  • Цельнометаллическая оболочка / Full Metal Jacket (Стэнли Кубрик, драма, вое ...
  • Вальгалла: Сага о викинге / Valhalla Rising (Николас Виндинг Рёфн, боевик, ...
  • Американский психопат / American Psycho (Мэри Хэррон, триллер, драма, крими ...
  • Пришелец / Impostor (Гэри Фледер, фантастика, боевик, триллер, драма, 2001) ...
  • Повторяющие / Repeaters (Карл Бессай, фантастика, боевик, триллер, драма, к ...
  • Любимые / The Loved Ones (Шон Бирн, ужасы, триллер, драма, 2009) [BDRip-AVC ...
  • Роб Рой / Rob Roy (Майкл Кейтон-Джонс, боевик, драма, мелодрама, 1995) [BDR ...
  • Далеко-далеко / Far and Away (Рон Ховард, драма, мелодрама, приключения, ве ...
  • Красавчик Джонни / Johnny Handsome (Уолтер Хилл, Триллер, драма, криминал, ...
  • Ронин / Ronin (Джон Франкенхаймер, боевик, триллер, драма, криминал, 1998) ...
  • Китайский квартал / Chinatown (Роман Полански, Триллер, драма, криминал, де ...
  • Такси 2 / Taxi 2 (Жерар Кравчик, боевик, комедия, криминал, 2000) [BDRip 72 ...
  • Авторитет / Juice (Эрнест Р. Дикерсон, триллер, драма, криминал, 1991) [HDT ...
  • Пудра / Powder (Виктор Сальва, фантастика, фэнтези, драма, 1995) [HDTVRip 7 ...
  • Трудный Ребенок 2 / Problem Child 2 (Брайан Левант, комедия, семейный, 1991 ...
  • Учитель на замену / Detachment (Тони Кэй, драма, 2011) [BDRip 720р, Професс ...
  • Откровения / Elles (Малгожата Шумовска, Драма, 2011) [BDRip 720p, Профессио ...
  • BBC: Большой Барьерный риф (с 1 по 3 из 3) / Great Barrier Reef (Джеймс Бр ...
  • Слова / The Words [EXTENDED] (Ли Стернтал, Драма, мелодрама, 2012) [BDRip 7 ...
  • Том и Джерри: Полет на Марс / Tom and Jerry Blast Off to Mars! (Билл Копп, ...
  • Информация
    Посетители, находящиеся в группе Гости, не могут оставлять комментарии к данной публикации.